Como ver filmes 3d mkv colocados em hd externo na Sony hx755

Discussão em 'Painéis 3D LED/LCD' iniciada por Appollu, 9 Dez 2012.

  1. Appollu

    Appollu Usuário

    Desde:
    9 Dez 2012
    Mensagens:
    12
    Obrigados:
    0
    Troféus:
    0
    Localização:
    Aloândia/Goiás/Brasil
    Baixei vários títulos de filmes mkv 3d e tentei rodar pelo hd externo conectado via usb num Blu-ray Sony BDP-190, porém somente dá a mensagem na TV (Sony 46HX755) de arquivo não compatível ou corrompido. Somente os arquivos 3d dão esta mensagem sendo que os outros arquivos mkv 1080p ou 720p rodam sem problemas. Tentei conectar o hd direito na TV porém ela não reconhece o hd. Alguém sabe ou já conseguiu rodar filmes 3d via hd externo?
     
  2. Appollu

    Appollu Usuário

    Desde:
    9 Dez 2012
    Mensagens:
    12
    Obrigados:
    0
    Troféus:
    0
    Localização:
    Aloândia/Goiás/Brasil
    Estou formatando o hd para exfat pra ver se consigo conectá-lo direto a tv. Depois posto se deu certo.
     
  3. PhantomStranger

    PhantomStranger Usuário Ativo

    Desde:
    25 Abr 2011
    Mensagens:
    12.379
    Obrigados:
    4
    Troféus:
    38
    Localização:
    São Paulo
    A maioria dos arquivos SBS estão com "Muxing mode: Header stripping". Onde nenhuma TV, Bluray ou ate mesmo um WDTV Live reconhece, aí a mensagem: "arquivo não compatível ou corrompido" no Sony BDP-190!

    Veja se seus arquivos estão assim, exemplo, ParaNorman que baixei:

    Video
    ID : 1
    Format : AVC
    Format/Info : Advanced Video Codec
    Format profile : High@L4.1
    Format settings, CABAC : Yes
    Format settings, ReFrames : 2 frames
    Muxing mode : Header stripping
    Codec ID : V_MPEG4/ISO/AVC
    Duration : 1h 32mn
    Bit rate : 11.2 Mbps
    Width : 1 920 pixels
    Height : 1 080 pixels
    Display aspect ratio : 16:9
    Frame rate : 23.976 fps
    Color space : YUV
    Chroma subsampling : 4:2:0
    Bit depth : 8 bits
    Scan type : Progressive
    Bits/(Pixel*Frame) : 0.225
    Stream size : 7.21 GiB (82%)
    Writing library : x264 core
    Language : English
    Default : Yes
    Forced : No
    Color primaries : BT.709-5, BT.1361, IEC 61966-2-4, SMPTE RP177
    Transfer characteristics : BT.709-5, BT.1361
    Matrix coefficients : BT.709-5, BT.1361, IEC 61966-2-4 709, SMPTE RP177


    Então precisa passar pelo programa MKVmerge....


    Outro motivo para a mensagem: "arquivo não compatível ou corrompido" no Sony BDP-190 é o "Format profile"!
    Muitas TVs e Bluray não aceitam "Format profile" acima de "High@L4.1"...

    Obs: TVs da Sony não aceitam HDs em NTFS assim como arquivos em MKV....
     
  4. Appollu

    Appollu Usuário

    Desde:
    9 Dez 2012
    Mensagens:
    12
    Obrigados:
    0
    Troféus:
    0
    Localização:
    Aloândia/Goiás/Brasil
    Sou leigo no assunto, mas percebi agora tudo que você citou ... formatei o hd para outro formato, ai sim ela reconhece, mas ainda não roda arquivos mkv :irado: . Agora qto ao MKVmerge ele converte o filme sem perdas? e com ele tem como eu baixar o Format profile?

    ---------- Mensagem adicionada às 23:08 ---------- Mensagem anterior foi enviada às 23:06 ----------

    Alguém sabe de aparelho bluray que roda esses arquivos mkv 3d sem problemas? se puder citar a marca e modelo agradeço? :D
     
  5. PhantomStranger

    PhantomStranger Usuário Ativo

    Desde:
    25 Abr 2011
    Mensagens:
    12.379
    Obrigados:
    4
    Troféus:
    38
    Localização:
    São Paulo

    MKVmerge não converte, apenas tira o Muxing mode : Header stripping. Então sem perdas!

    Para mudar o Format Profile é outro esquena.: TSMuxer + MKVmerge. E sem perdas também....
     
  6. babi182

    babi182 Usuário

    Desde:
    9 Set 2009
    Mensagens:
    62
    Obrigados:
    0
    Troféus:
    0
    Localização:
    Brasília DF
    Estou com o boleto da hx755 para pagar e minha dúvida é exatamente essa!! Onde irei rodar meus filmes/seriados/ filmes 3d?? Pensei em comprar o modelo que o colega Appollu tem (sony S190) e pensei q com isso resolveria meu problema, mas n resolve =/

    Então eu poderia rodar todo e qualquer tipo de filme pelo notebook?? (exemplo: the.amazing.spider-man.2012.1080p.bluray.3D.h-sbs.dts.x264-publichd.mkv ) As configurações do laptop interferem em algo? (tenho um i5 2a geração, s/ placa d video dedicada e com 4 gb de memória).
    Teria alguma outra solução?? As vezes um outro modelo de blu-ray ..

    Se eu comprasse a samsung 6800 no lugar dessa sony hx755, resolveria esse problema?? Ela rodaria esses videos em 3d??

    Obrigada
     
  7. Appollu

    Appollu Usuário

    Desde:
    9 Dez 2012
    Mensagens:
    12
    Obrigados:
    0
    Troféus:
    0
    Localização:
    Aloândia/Goiás/Brasil
    Acho q usando pc ou note por hdmi só testando ... pq ouvi relatos de gente dizendo que conseguiu e ficou perfeito, outros com dificuldade e imagem distorcida, tentei instalar power dvd 12 mas esse programa fecha de repente aquele TotalMedia Theatre 5 fica com a imagem em zoom e cortada, não consegui obter resultados ... vou tentar baixar outro programa e se tiver progresso posto aqui. Até!
     
  8. Appollu

    Appollu Usuário

    Desde:
    9 Dez 2012
    Mensagens:
    12
    Obrigados:
    0
    Troféus:
    0
    Localização:
    Aloândia/Goiás/Brasil

    Obrigado PhantomStranger mim ajudou muito já suas postagens, vou ver se consigo usar o MKVmerge.
     
  9. ElizeuHT

    ElizeuHT Usuário

    Desde:
    16 Out 2009
    Mensagens:
    3.003
    Obrigados:
    0
    Troféus:
    0
    Localização:
    Charqueadas/ RS/ Brasil
    Usando o pc fica perfeito!
    Pc com saida hdmi e um hardware mediano ao menos o resultado é show!
     
  10. babi182

    babi182 Usuário

    Desde:
    9 Set 2009
    Mensagens:
    62
    Obrigados:
    0
    Troféus:
    0
    Localização:
    Brasília DF
    Mais uma vez ElizeuHT, obrigada! =]
    Então, nesse meu lap (i5 2a geração sem placa d video ded.) provavelmente rodaria, né? Na sua HX755 vc assiste dessa maneira?

    E um modelo de media player, resolveria?? Alguém saberia um modelo bacana?

    (y)
     
  11. ElizeuHT

    ElizeuHT Usuário

    Desde:
    16 Out 2009
    Mensagens:
    3.003
    Obrigados:
    0
    Troféus:
    0
    Localização:
    Charqueadas/ RS/ Brasil
    De nada :)
    Rodaria bem, mas com uma placa de video dedicada rodaria muito melhor.
    Media player da philips dizem que é perfeito!
    Tem no shoptime!
     
  12. Masters

    Masters Usuário

    Desde:
    29 Jan 2008
    Mensagens:
    30
    Obrigados:
    0
    Troféus:
    0
    Localização:
    João Pessoa
    babi182,

    Pode fechar sua compra e aguardar anciosamente por sua HX755!!
    Ontem recebi a minha, e também tenho um laptop com as configurações
    semelhantes a sua, e rodei o filme Premonição 5 - 3D - formato .mkv.
    Levei um tempinho para conseguir rodar o filme, converter a legenda para 3D,
    mas no final tudo deu certo! E o resultado foi fantástico!! Valeu cada centavo!!

    Fica a dica:
    Player: VLC Media Player
    Editor de legenda 3D: 3D-Subtitler 2.7.1.0

    Abçs
     
  13. ElizeuHT

    ElizeuHT Usuário

    Desde:
    16 Out 2009
    Mensagens:
    3.003
    Obrigados:
    0
    Troféus:
    0
    Localização:
    Charqueadas/ RS/ Brasil
    Este tópico NÃO deveria ter sido criado, afinal já existe o tópico da SONY HX755 onde pode ser tirado dúvidas lá.
     
  14. Appollu

    Appollu Usuário

    Desde:
    9 Dez 2012
    Mensagens:
    12
    Obrigados:
    0
    Troféus:
    0
    Localização:
    Aloândia/Goiás/Brasil
    Consegui rodar filmes 3d baixados da net como este
    Os.Vingadores.2012.1080p.BluRay.3D.Half.SBS.x264-INFERNO.DUAL-BKZ.mkv
    As TV sony não lê arquivos MKV como este que citei e como citados pelos amigos acima e o aparelho Sony BDP-190 ao tentar rodar esses arquivos dá a mensagem de arquivo não compatível ou corrompido.
    O amigo PhatomStranger falou sobre os programas
    TSMuxer + MKVmerge para resolver esses problemas, ainda não sei como usá-los direito, mas usei um ótimo programa que converteu o filme que baixei em MKV 3D para o mesmo formato, porém sendo reconhecido pelo aparelho.
    http://uploaded.net/file/o7efajbq
    Nas configurações do programa alterei apenas as opções Zoom (manter a proporção) e marquei a opção "mesma qualidade). Assim finalmente consegui rodar o filme 3D.
    No computador olhando o arquivo original e o convertido não vi diferença alguma, e ficou ótimo vendo na TV. Pena q demora mais de duas horas pra fazer essa conversão.
    Vou procurar um tutorial e ver se com os programas TSMuxer + MKVmerge é mais rápido, também fazer o teste do PC na TV.
    Se alguém achar o tutorial de como usar os programas
    TSMuxer + MKVmerge, agradeço.


     
  15. Appollu

    Appollu Usuário

    Desde:
    9 Dez 2012
    Mensagens:
    12
    Obrigados:
    0
    Troféus:
    0
    Localização:
    Aloândia/Goiás/Brasil
    Sorry!
    Vivendo e aprendendo :D
     
  16. PhantomStranger

    PhantomStranger Usuário Ativo

    Desde:
    25 Abr 2011
    Mensagens:
    12.379
    Obrigados:
    4
    Troféus:
    38
    Localização:
    São Paulo
    Eu tenho exatamente esse arquivo:

    General
    Complete name : J:\SBS 3D\Os.Vingadores.2012.1080p.BluRay.3D.Half.SBS.x264-INFERNO.DUAL-BKZ.mkv
    Format : Matroska
    Format version : Version 2
    File size : 13.8 GiB
    Duration : 2h 22mn
    Overall bit rate mode : Variable
    Overall bit rate : 13.8 Mbps
    Movie name : The Avengers 2012 BluRay3D Half SBS 1080p AC3 x264 INFERNO
    Encoded date : UTC 2012-08-24 21:22:08
    Writing application : mkvmerge v4.9.1 ('Ich will') built on Jul 11 2011 22:46:04
    Writing library : libebml v1.2.1 + libmatroska v1.1.1

    Video
    ID : 1
    Format : AVC
    Format/Info : Advanced Video Codec
    Format profile : High@L5.1
    Format settings, CABAC : Yes
    Format settings, ReFrames : 2 frames
    Codec ID : V_MPEG4/ISO/AVC
    Duration : 2h 22mn
    Bit rate mode : Variable
    Bit rate : 12.5 Mbps
    Maximum bit rate : 19.2 Mbps
    Width : 1 920 pixels
    Height : 1 080 pixels
    Display aspect ratio : 16:9
    Frame rate : 23.976 fps
    Color space : YUV
    Chroma subsampling : 4:2:0
    Bit depth : 8 bits
    Scan type : Progressive
    Bits/(Pixel*Frame) : 0.252
    Stream size : 12.5 GiB (91%)
    Language : English
    Default : Yes
    Forced : No

    Audio #1
    ID : 2
    Format : AC-3
    Format/Info : Audio Coding 3
    Mode extension : CM (complete main)
    Format settings, Endianness : Big
    Codec ID : A_AC3
    Duration : 2h 22mn
    Bit rate mode : Constant
    Bit rate : 384 Kbps
    Channel(s) : 6 channels
    Channel positions : Front: L C R, Side: L R, LFE
    Sampling rate : 48.0 KHz
    Bit depth : 16 bits
    Compression mode : Lossy
    Stream size : 393 MiB (3%)
    Title : BKZ
    Language : Portuguese
    Default : Yes
    Forced : Yes

    Audio #2
    ID : 3
    Format : AC-3
    Format/Info : Audio Coding 3
    Mode extension : CM (complete main)
    Format settings, Endianness : Big
    Codec ID : A_AC3
    Duration : 2h 22mn
    Bit rate mode : Constant
    Bit rate : 640 Kbps
    Channel(s) : 6 channels
    Channel positions : Front: L C R, Side: L R, LFE
    Sampling rate : 48.0 KHz
    Bit depth : 16 bits
    Compression mode : Lossy
    Stream size : 654 MiB (5%)
    Language : English
    Default : No
    Forced : No
     
  17. Appollu

    Appollu Usuário

    Desde:
    9 Dez 2012
    Mensagens:
    12
    Obrigados:
    0
    Troféus:
    0
    Localização:
    Aloândia/Goiás/Brasil
    Como vc consegue ver essas informações dos filmes? Q programa vc usa? Outra coisa vc sabe de um tutorial bacana que ajuda a usar o TSMuxer + MKVmerge? Pq pode ser mais rápido q com o programa q uso. :D
     
  18. PhantomStranger

    PhantomStranger Usuário Ativo

    Desde:
    25 Abr 2011
    Mensagens:
    12.379
    Obrigados:
    4
    Troféus:
    38
    Localização:
    São Paulo
    É só instalar o K-Lite Codec Pack Full que tem "MediaInfo"....
     
  19. Appollu

    Appollu Usuário

    Desde:
    9 Dez 2012
    Mensagens:
    12
    Obrigados:
    0
    Troféus:
    0
    Localização:
    Aloândia/Goiás/Brasil
    Vlw ... Vc sabe explicar ou tem um tutorial pra ajudar a usar o TSMuxer + MKVmerge?
     
  20. PhantomStranger

    PhantomStranger Usuário Ativo

    Desde:
    25 Abr 2011
    Mensagens:
    12.379
    Obrigados:
    4
    Troféus:
    38
    Localização:
    São Paulo
    É muito simples e rápido de fazer. Quando eu tiver um tempo faço um passo a passo com fotos de como trocar o Format profile, etc.,....
     

Compartilhar esta Página