Anúncio do HT Forum

Clube do Compact Disc

Discussão em 'Áudio Estéreo Digital' iniciada por yestaken, 23 Ago 2015.

  1. pauldiano66

    pauldiano66 Usuário


    Desde 15 Set 2010
    sao paulo
    Anúncio do HT Forum

    Pedro vou ouvir melhor e te passo.
     
    • 3
  2. pauldiano66

    pauldiano66 Usuário


    Desde 15 Set 2010
    sao paulo
    Hoje testando bem meu cd player marantz 5005, qualidade excelente, mas qaundo escuto musica do celular via tidal ou spotify o som fica mais alto e mais grave push, com o cd player fica mais baixo e menos grave, desanimei.
     
    • 2
    • 1
  3. Pedro Oliveras

    Pedro Oliveras Cinéfilo

    5.953 4.325 861

    Desde 16 Fev 2007
    Rio
    Valeu! No aguardo.

    E foi mal o offtopic!


    Vou compensar postando meus Rush que comprei (junto do problemático Signals):D
     
    • 2
  4. Pedro Oliveras

    Pedro Oliveras Cinéfilo

    5.953 4.325 861

    Desde 16 Fev 2007
    Rio
    Ele teria o Moving Pictures nessas condições também?
    Por esse valor consideraria apenas se fosse o Moving WG .
     
    • 1
  5. pauldiano66

    pauldiano66 Usuário


    Desde 15 Set 2010
    sao paulo

    Acabei de ouvir, os caras deixaram as caixas central e surround bem altas, e as frontais ficaram um pouco baixa, mas ficou bem distribuído, ficou o publico bem alto e as guitarras na traseira.
     
    • 2
  6. Pedro Oliveras

    Pedro Oliveras Cinéfilo

    5.953 4.325 861

    Desde 16 Fev 2007
    Rio
    Mas na central tem algum áudio separado específico?(apenas voz,apenas bateria,e baixo etc) Ou está "tudo junto" rs

    Um saco isso de sair só pcm 5.1.
    Tem um bluray audio do roger waters que não pude ouvir surround por isso.
    Se fosse DTS HDMA não teria problemas,tocaria normalmente como um DTS comum.
     
    • 1
  7. pauldiano66

    pauldiano66 Usuário


    Desde 15 Set 2010
    sao paulo

    central ficou só a voz.
     
    • 2
  8. Alecast

    Alecast Usuário

    1.944 3.699 221

    Desde 29 Dez 2014
    Brasília
    Por esse valor eu consideraria o Signals com certeza, principalmente porque se trata de uma edição excelente em perfeito estado de conservação.
    Vou perguntar se ele tem o Moving, mas acho que não.
     
    • 1
  9. Pedro Oliveras

    Pedro Oliveras Cinéfilo

    5.953 4.325 861

    Desde 16 Fev 2007
    Rio
    Outro contratempo.

    eu nunca vi problemas com o 2112 remaster 97, esse não estava nos planos ...mas como vi barato no sebo uma bem conservada versão antiga BR peguei.

    ao ouvir, me surpreendi com a altura dele, e não tem aquele som "quente", pois pasmei , tem os mesmos números de DR do remaster 97. como se explica isso?? nada tem a ver com a master antiga.

    ele é alto , e parece ter mais brilho o som,que o remaster 97 , mas pode ser efeito placebo pois os numeros dizem que são os mesmos.


    v.97
    R Peak RMS Duration Track
    --------------------------------------------------------------------------------
    DR9 -0.20 dB -11.83 dB 20:33 01-2112
    DR9 -0.20 dB -11.11 dB 3:35 02-A Passage to Bangkok
    DR10 -0.20 dB -12.26 dB 3:19 03-The Twilight Zone
    DR9 -0.20 dB -11.51 dB 3:53 04-Lessons
    DR10 -0.20 dB -13.61 dB 3:34 05-Tears
    DR9 -0.20 dB -11.36 dB 4:00 06-Something for Nothing
    --------------------------------------------------------------------------------

    Number of tracks: 6
    Official DR value: DR9

    v 93(está impresso na mídia)
    Analyzed folder: C:\Users\pedro\Music\Rush\2112\
    ----------------------------------------------------------------------------------------------
    DR Peak RMS Filename
    ----------------------------------------------------------------------------------------------

    DR9 -0.20 dB -11.83 dB 01 2112.wav
    DR9 -0.20 dB -11.11 dB 02 A Passage To Bangkok.wav
    DR10 -0.20 dB -12.26 dB 03 The Twilight Zone.wav
    DR9 -0.20 dB -11.51 dB 04 Lessons.wav
    DR10 -0.20 dB -13.61 dB 05 Tears.wav
    DR9 -0.20 dB -11.36 dB 06 Something For Nothing.wav
    ----------------------------------------------------------------------------------------------

    Number of files: 6
    Official DR value: DR9
     
    • 1
  10. Pedro Oliveras

    Pedro Oliveras Cinéfilo

    5.953 4.325 861

    Desde 16 Fev 2007
    Rio
    vou colocar uns 15 reais a mais do preço que paguei pra pagar a sola de sapato pros correios e anunciar. vou olhar até o Hemispheres antigo BR que tenho, que parei de ouvir depois que peguei o ótimo deluxe duplo.
    capaz de ser assim também.

    agora fiquei desconfiado de todos que nao sejam Atom do Rush
     
    • 1
  11. Pedro Oliveras

    Pedro Oliveras Cinéfilo

    5.953 4.325 861

    Desde 16 Fev 2007
    Rio
    [​IMG]
    [​IMG]
    [​IMG]
    [​IMG]
    [​IMG]
     
    • 1
    • 1
  12. Luandumonza

    Luandumonza Clube do Compact Disc

    5.416 6.862 383

    Desde 9 Mar 2018
    São paulo
    Pedro tem algo errado aí, pois a edição original do 2112 é um DR13 e não DR9.

    Verifique novamente sua medição, e veja se essa edição nacional não usa a remaster ou se você se confundiu na hora de ver o resultado da medição.

    Remaster.
    http://dr.loudness-war.info/album/view/138032

    Original.
    http://dr.loudness-war.info/album/view/129177
     
    • 1
  13. Pedro Oliveras

    Pedro Oliveras Cinéfilo

    5.953 4.325 861

    Desde 16 Fev 2007
    Rio

    Pois é tem algo estranho aí. Não precisa ser refeito,a medição está certa e além do mais o CD nacional está realmente alto, ouvi os dois.

    Hoje vou ver se passa isso com o Hemispheres também e anunciar ele tb no ML.

    O encarte é do formato antigo, sem fundo com o logo remasters...mesmo assim os numeros batem.
     
    • 2
  14. Pedro Oliveras

    Pedro Oliveras Cinéfilo

    5.953 4.325 861

    Desde 16 Fev 2007
    Rio
    A principio a única coisa que penso é : fui tapeado kkk...
     
    • 2
  15. Luandumonza

    Luandumonza Clube do Compact Disc

    5.416 6.862 383

    Desde 9 Mar 2018
    São paulo
    Você não viu o mesmo arquivo de medição duas vezes e achou que eram iguais?

    O correto era a edição nacional usar a master original, os números mostram que essa edição usa a master da Remaster, e isso não tem haver com ser Atom ou não, a maioria dos Atom do Rush usam as mesmas masterizações das versões pratas.
     
    • 1
  16. Pedro Oliveras

    Pedro Oliveras Cinéfilo

    5.953 4.325 861

    Desde 16 Fev 2007
    Rio
    Está certo Luan. Os números peguei na hora e batem com o que está no site da v. 97.
     
    • 2
  17. Luandumonza

    Luandumonza Clube do Compact Disc

    5.416 6.862 383

    Desde 9 Mar 2018
    São paulo
    Os números do remaster de 97 estão corretos neles não tem erro, agr a edição nacional deveria ter a master diferente é sobre ele e que eu tô falando se você não pegou o resultado errado qnd o programa gerou os números tendeu? Ele deveria ter a master original como todas as outras edições do 2112.
     
    • 1
  18. Pedro Oliveras

    Pedro Oliveras Cinéfilo

    5.953 4.325 861

    Desde 16 Fev 2007
    Rio
    Estão certos e o cd é tão alto qto o 97.
     
    • 2
  19. Pedro Oliveras

    Pedro Oliveras Cinéfilo

    5.953 4.325 861

    Desde 16 Fev 2007
    Rio
    Sei que parece bizarro, mas é exatamente o que está acontecendo...

    Como falei esse nacional parece ter mais brilho,mas pode ser só impressão já que os números batem. Volume o mesmo de 97.
     
    • 2
  20. Luandumonza

    Luandumonza Clube do Compact Disc

    5.416 6.862 383

    Desde 9 Mar 2018
    São paulo
    Provavelmente então a edição nacional é remaster mas lançaram sem mudar o layout da mídia nem dos encartes, pq os números dele são da remasterização de 1997.
     
    • 1
  1. Usamos cookies próprios e de terceiros para dar um melhor serviço e mostrar publicidade. Ao continuar, aceita o seu uso.
    Fechar Aviso