Anúncio do HT Forum

CLUBE DO DUAL ÁUDIO: Dublagens, Dicas e Tutoriais

Discussão em 'HTPCs, Media Centers e Streamers' iniciada por Fairoxx, 21 Ago 2014.

  1. rafa.lopes

    rafa.lopes Usuário


    Desde 24 Mai 2010
    Porto Alegre/RS
    Frankenstein (1931)
    Frankenstein


    [​IMG]




    Audio
    Format: AC-3
    Format/Info: Audio Coding 3
    Mode extension: CM (complete main)
    Format settings, Endianness: Big
    Duration: 1h 10mn
    Bit rate mode: Constant
    Bit rate: 192 Kbps
    Channel(s): 2 channels
    Channel positions: Front: L R
    Sampling rate: 48.0 KHz
    Bit depth: 16 bits
    Compression mode: Lossy
    Stream size: 96.1 MiB (100%)


    A Noiva de Frankenstein (1935)
    Bride of Frankenstein


    [​IMG]



    Audio
    Format: AC-3
    Format/Info: Audio Coding 3
    Mode extension: CM (complete main)
    Format settings, Endianness: Big
    Duration: 1h 14mn
    Bit rate mode: Constant
    Bit rate: 192 Kbps
    Channel(s): 2 channels
    Channel positions: Front: L R
    Sampling rate: 48.0 KHz
    Bit depth: 16 bits
    Compression mode: Lossy
    Stream size: 102 MiB (100%)



    Fontes: DVD
    Legendas:IDX/SUB


    Áudio + Legendas idx/sub + Capítulos
     
  2. BELIAL

    BELIAL EYES OF SATAN

    98 239 14

    Desde 30 Mar 2014
    HELL
    Lolita 1962

    [​IMG]

    Áudio
    Formato : AC-3
    Duração : 2h 33mn
    Modo da taxa de bits : Constante
    Taxa de bits : 192 Kbps
    Nº de canais : 1 canal
    Posições dos canais : Front: C
    Taxa de amostragem : 48.0 KHz
    BitDepth/String : 16 bits
    Tamanho da Faixa : 211 MiB (100%)

    FONTE-BD

    [​IMG]
     
  3. rafa.lopes

    rafa.lopes Usuário


    Desde 24 Mai 2010
    Porto Alegre/RS
    Mestre dos Mares - O Lado Mais Distante do Mundo (2003)
    Master and Commander: The Far Side of the World




    [​IMG]




    Audio
    Format: AC-3
    Format/Info: Audio Coding 3
    Mode extension: CM (complete main)
    Format settings, Endianness: Big
    Duration: 2h 18mn
    Bit rate mode: Constant
    Bit rate: 384 Kbps
    Channel(s): 6 channels
    Channel positions: Front: L C R, Side: L R, LFE
    Sampling rate: 48.0 KHz
    Bit depth: 16 bits
    Compression mode: Lossy
    Stream size: 380 MiB (100%)


    Fonte: DVD
    Legenda:IDX/SUB


    Áudio + Legendas idx/sub + Capítulos
     
  4. 12riddickvgp12

    12riddickvgp12 Usuário

    877 1.425 923

    Desde 25 Fev 2012
    São Paulo
    [​IMG]

    Audio : 21 Jump Street 2012
    Format : DTS
    Format/Info : Digital Theater Systems
    Mode : 16
    Format settings, Endianness : Big
    Duration : 1h 49mn
    Bit rate mode : Constant
    Bit rate : 1 509 Kbps
    Channel(s) : 6 channels
    Channel positions : Front: L C R, Side: L R, LFE
    Sampling rate : 48.0 KHz
    Bit depth : 24 bits
    Compression mode : Lossy
    Stream size : 1.16 GiB (100%)


    Legendas SUP e menu de capítulos.


    uma Pergunta: Alguém ai sabe quando sairá Anjos da Lei 2 (22 Jump Street)?
     
  5. SoN_

    SoN_ Usuário

    91 62 13

    Desde 26 Mar 2011
    Marília-SP
    O Hobbit: A Desolação de Smaug - 2013
    [​IMG]
    Audio
    Format : AC-3
    Format/Info : Audio Coding 3
    Mode extension : CM (complete main)
    Format settings, Endianness : Big
    Duration : 2h 41mn
    Bit rate mode : Constant
    Bit rate : 384 Kbps
    Channel(s) : 6 channels
    Channel positions : Front: L C R, Side: L R, LFE
    Sampling rate : 48.0 KHz
    Bit depth : 16 bits
    Compression mode : Lossy
    Stream size : 443 MiB (100%)


    Fonte: DVDR
    Legendas IDX/SUB portugues e ingles
    Capitulos
    + Bonus do DVD
     
  6. ericpa06

    ericpa06 Usuário

    737 13 1

    Desde 15 Mai 2010
    São Paulo/São Paulo/Brasil
    To gostando de ver! Bastantes caras novas por aqui :)
     
  7. olevita

    olevita Usuário


    Desde 29 Dez 2011
    Boa Vista - RR
    Filme: O Caçador de Zumbis (Zombie Hunter - 2013)

    [​IMG]
    Audio
    Format : AC-3
    Format/Info : Audio Coding 3
    Mode extension : CM (complete main)
    Format settings, Endianness : Big
    Duration : 1h 32mn
    Bit rate mode : Constant
    Bit rate : 192 Kbps
    Channel(s) : 2 channels
    Channel positions : Front: L R
    Sampling rate : 48.0 KHz
    Bit depth : 16 bits
    Compression mode : Lossy
    Stream size : 127 MiB (100%)

    Fonte: DVD
    FPS: 29.970

    Áudio + Legendas idx/sub + Capítulos
     
  8. val-happy

    val-happy Usuário

    937 4.305 508

    Desde 17 Jan 2007
    São Joaquim da Barra/SP/Brasil
    Filme:

    Menina de Ouro (Million Dollar Baby - 2004)

    [​IMG]

    Audio
    Format : AC-3
    Format/Info : Audio Coding 3
    Mode extension : CM (complete main)
    Format settings, Endianness : Big
    Duration : 2h 12mn
    Bit rate mode : Constant
    Bit rate : 192 Kbps
    Channel(s) : 2 channels
    Channel positions : Front: L R
    Sampling rate : 48.0 KHz
    Bit depth : 16 bits
    Compression mode : Lossy
    Stream size : 182 MiB (100%)

    Fonte: DVD
    FPS: 29.970

    Áudio + Legendas idx/sub + Capítulos
     
  9. Druid

    Druid Usuário


    Desde 23 Jan 2005
    Curitiba/PR/Brasil
    A Culpa É Das Estrelas aka The Fault in Our Stars 2014 (Extended)

    [​IMG]

    Format : AC-3
    Format/Info : Audio Coding 3
    Mode extension : CM (complete main)
    Format settings, Endianness : Big
    Codec ID : A_AC3
    Duration : 2h 12mn
    Bit rate mode : Constant
    Bit rate : 384 Kbps
    Channel(s) : 6 channels
    Channel positions : Front: L C R, Side: L R, LFE
    Sampling rate : 48.0 KHz
    Bit depth : 16 bits
    Compression mode : Lossy
    Stream size : 365 MiB (7%)
    Title : Portugues AC3 5.1- BRENYS
    Language : Portuguese
    Default : Yes
    Forced : No

    Fonte MKV (Brenys BJ2.ME)

    .:: Upado na Tabela De Áudios Editados/Raros/Duvidosos aka Tabela Secundária ::.

    Druid®.
     
  10. Bibiu

    Bibiu Usuário

    320 2.890 118

    Desde 20 Mar 2014
    Fortaleza - CE
    Curvas da Vida (Trouble with the Curve) 2012
    [​IMG]
    Audio
    Format : AC-3
    Format/Info : Audio Coding 3
    Mode extension : CM (complete main)
    Format settings, Endianness : Big
    Duration : 1h 48mn
    Bit rate mode : Constant
    Bit rate : 384 Kbps
    Channel(s) : 6 channels
    Channel positions : Front: L C R, Side: L R, LFE
    Sampling rate : 48.0 KHz
    Bit depth : 16 bits
    Compression mode : Lossy
    Stream size : 299 MiB (100%)
    FONTE: DVD
    LEGENDAS: IDX/SUB + CAPS.
     
  11. 12riddickvgp12

    12riddickvgp12 Usuário

    877 1.425 923

    Desde 25 Fev 2012
    São Paulo
    Estão zoando a Tabela de novo

    - - - Atualizado - - -

    Bibiu a minhateca.com é confiável? como funciona?
     
  12. Bibiu

    Bibiu Usuário

    320 2.890 118

    Desde 20 Mar 2014
    Fortaleza - CE
    Ele e bom, alem de ser ilimitado os download são rápidos. Comecei a testa ele esses dia pq o mega as vezes fica dando erro.(y)
     
  13. Oh Yeah

    Oh Yeah Usuário

    24 17 1

    Desde 29 Set 2013
    Bahia
    Tem algum desocupado zoando a tabela de novo =/
     
  14. kalazans

    kalazans Usuário

    134 1.482 43

    Desde 2 Jan 2014
    Baltimore/Maryland
    [h=1]Pense como Eles Também (Think Like a Man Too) 2014[/h]
    [​IMG]

    Audio
    Format : DTS
    Format/Info : Digital Theater Systems
    Format profile : MA / Core
    Duration : 1h 45mn
    Bit rate mode : Variable
    Bit rate : 2 065 Kbps / 1 510 Kbps
    Channel(s) : 6 channels
    Channel positions : Front: L C R, Side: L R, LFE
    Sampling rate : 48.0 KHz
    Bit depth : 16 bits
    Compression mode : Lossless / Lossy



    Legenda: .Sup
    Fonte: BD-R
     
  15. 12riddickvgp12

    12riddickvgp12 Usuário

    877 1.425 923

    Desde 25 Fev 2012
    São Paulo
    [​IMG]

    Audio : Pacific Rim 2013
    Format : AC-3
    Format/Info : Audio Coding 3
    Mode extension : CM (complete main)
    Format settings, Endianness : Big
    Duration : 2h 11mn
    Bit rate mode : Constant
    Bit rate : 640 Kbps
    Channel(s) : 6 channels
    Channel positions : Front: L C R, Side: L R, LFE
    Sampling rate : 48.0 KHz
    Bit depth : 16 bits
    Compression mode : Lossy
    Stream size : 601 MiB (100%)

    Legendas SUP e menu de capítulos.
     
  16. olevita

    olevita Usuário


    Desde 29 Dez 2011
    Boa Vista - RR

    Pode colocar o mesmo áudio mais de 1 vez irmão? Porque esse eu já vi 2 iguais na tabela primária. Só para o meu conhecimento, obrigado.

    :tchau:
     
  17. ktn

    ktn Usuário


    Desde 13 Ago 2013
    brasil
    Quando se trata de áudios originais com legendas de acordo com as regras, quanto mais melhor, assim evita de ficar sem opções de download quando algum link ficar off (y)
     
  18. olevita

    olevita Usuário


    Desde 29 Dez 2011
    Boa Vista - RR

    Ok brother. Obrigado pelos esclarecimentos. (y)

    Semeando sempre!
     
  19. Bibiu

    Bibiu Usuário

    320 2.890 118

    Desde 20 Mar 2014
    Fortaleza - CE
    Mundo Proibido (Cool World) 1992
    [​IMG]
    Audio
    Format : AC-3
    Format/Info : Audio Coding 3
    Mode extension : CM (complete main)
    Format settings, Endianness : Big
    Duration : 1h 34mn
    Bit rate mode : Constant
    Bit rate : 448 Kbps
    Channel(s) : 2 channels
    Channel positions : Front: L R
    Sampling rate : 48.0 KHz
    Bit depth : 16 bits
    Compression mode : Lossy
    Stream size : 304 MiB (100%)
    FONTE: DVD AUTORADO.
    LEGENDAS: IDX/SUP + CAPS
    TABELA SECUNDARIA.
     
  20. LoneWolf

    LoneWolf Lobisomem


    Desde 1 Dez 2013
    Londres
    Sem querer me intrometer mas já me intrometendo...
    Esse servidor é ótimo, cheio de opções, praticamente uma rede social para compartilhamento de arquivos. As duas melhores coisas nele são o fato de ser gratuito e a disponibilidade de espaço "sem limites", porém é justamente isso que me preocupa...sem limites até quando? Não existe servidor infinito. Além disso tu pode copiar arquivos de outros usuários pra tua conta (outra grande sacada), mas nessas de copiar arquivos já tem muitos usuários com dezenas de Terabytes no servidor do minhateca... Outra coisa, gratuito até quando...? Sabemos que o minhateca é uma cópia fiel do servidor abelhas.pt (que talvez seja cópia de algum servidor russo), a diferença é que o abelhas conta com um sistema de pontos, no qual quanto mais pessoas baixarem os arquivos que você upou, mais pontos você ganha (a pontuação varia de acordo com o tamanho do arquivo também) mas por enquanto ainda não foi mostrado para que esses pontos irão servir...
    Agora, a coisa que mais me preocupa no minhateca é o fato de ele ser um sistema brasileiro, o que o torna ainda menos confiável, tendo em vista que aqui nesse país ninguém leva nada a sério, é tudo no oba-oba.

    Tirando isso, na minha opinião, servidores como o abelhas.pt e o minhateca levaram a ideia de compartilhamento para outro nível.
     
  1. Usamos cookies próprios e de terceiros para dar um melhor serviço e mostrar publicidade. Ao continuar, aceita o seu uso.
    Fechar Aviso