Anúncio do HT Forum

NOVA SMART TV 2017 SAMSUNG SERIES MU

Discussão em 'Painéis 4K' iniciada por wagneremunique, 27 Jul 2017.

  1. wagneremunique

    wagneremunique Usuário


    Desde 11 Mai 2017
    são gonçalo rj
    topico aberto sobre as novas smart tvs da serie MU da samsung, quem ja comprou postem aqui analise e oq achou tenho um canal com varias videos de tvs da lg e em breve tera das samsung ta ai o link https://www.youtube.com/channel/UCGYh8mgisUb6vsmtPA-14KA

    meu grupo de hardware do facebook Hardware & Overclock Brasil [OFICIAL] para quem gosta de hardware, ta ai o link https://www.facebook.com/groups/HardwareOverclock/


    em breve videos e analise das novas tvs samsung MU, quem tem posta aqui oq acharam TOPICO ABERTO
     
    • 7
  2. Dante003

    Dante003 Usuário


    Desde 28 Mai 2010
    Marília/SP
    A minha chegou hoje, 40MU6100, infelizmente mantiveram sem bluetooth e microfone no controle.
    De qualquer forma, fui rodar um vídeo em 4k nela e ela diz que o formato não é suportado :S. De acordo com o manual ela deveria suportar.

    Esses são os dados do vídeo

    General
    Unique ID : 20013944572823894494182765312542992562 (0xF0E8BA6EC96D016CF116C56C81B68B2)
    Format : Matroska
    Format version : Version 4 / Version 2
    File size : 42.4 GiB
    Duration : 2 h 14 min
    Overall bit rate : 45.2 Mb/s
    Movie name : 4K VISIONPLUSHDR-1000 Chroma Subsampling 4:2:2 Edition
    Encoded date : UTC 2017-05-31 21:27:56
    Writing application : mkvmerge v7.2.0 ('On Every Street') 64bit built on Sep 13 2014 19:08:28
    Writing library : libebml v1.3.0 + libmatroska v1.4.1

    Video
    ID : 1
    Format : HEVC
    Format/Info : High Efficiency Video Coding
    Format profile : @L5@High
    Codec ID : V_MPEGH/ISO/HEVC
    Duration : 2 h 13 min
    Bit rate : 39.8 Mb/s
    Width : 3 840 pixels
    Height : 1 608 pixels
    Display aspect ratio : 2.40:1
    Frame rate mode : Constant
    Frame rate : 23.976 (24000/1001) FPS
    Color space : YUV
    Chroma subsampling : 4:2:2 (Type 2)
    Bit depth : 10 bits
    Bits/(Pixel*Frame) : 0.269
    Stream size : 37.2 GiB (88%)
    Title : 4K VISIONPLUSHDR-1000 4:2:2 Edition
    Writing library : x265 2.3+17-6e348252e902:[Windows][GCC 6.3.0][64 bit] 10bit
    Encoding settings : cpuid=1173503 / frame-threads=3 / numa-pools=8 / wpp / no-pmode / no-pme / no-psnr / no-ssim / log-level=2 / input-csp=2 / input-res=3840x1608 / interlace=0 / total-frames=192703 / level-idc=0 / high-tier=1 / uhd-bd=0 / ref=1 / no-allow-non-conformance / repeat-headers / annexb / no-aud / no-hrd / info / hash=0 / no-temporal-layers / no-open-gop / min-keyint=23 / keyint=250 / bframes=3 / b-adapt=0 / b-pyramid / bframe-bias=0 / rc-lookahead=5 / lookahead-slices=8 / scenecut=40 / no-intra-refresh / ctu=32 / min-cu-size=16 / no-rect / no-amp / max-tu-size=32 / tu-inter-depth=1 / tu-intra-depth=1 / limit-tu=0 / rdoq-level=0 / dynamic-rd=0.00 / no-signhide / no-tskip / nr-intra=0 / nr-inter=0 / no-constrained-intra / strong-intra-smoothing / max-merge=2 / limit-refs=0 / no-limit-modes / me=3 / subme=5 / merange=57 / temporal-mvp / no-weightp / no-weightb / no-analyze-src-pics / deblock=0:0 / no-sao / no-sao-non-deblock / rd=2 / early-skip / no-rskip / fast-intra / no-tskip-fast / no-cu-lossless / no-b-intra / rdpenalty=0 / psy-rd=4.00 / psy-rdoq=0.00 / no-rd-refine / analysis-mode=0 / no-lossless / cbqpoffs=0 / crqpoffs=0 / rc=abr / bitrate=40000 / qcomp=0.60 / qpstep=1 / stats-write=0 / stats-read=0 / ipratio=1.10 / pbratio=1.00 / aq-mode=0 / aq-strength=0.00 / no-cutree / zone-count=0 / no-strict-cbr / qg-size=32 / rc-grain / qpmax=69 / qpmin=0 / sar=0 / overscan=0 / videoformat=5 / range=0 / colorprim=9 / transfer=16 / colormatrix=9 / chromaloc=1 / chromaloc-top=2 / chromaloc-bottom=2 / display-window=0 / master-display=G(8500,39850)B(6550,2300)R(35400,14600)WP(15635,16450)L(100000000,1) / max-cll=10000,180 / min-luma=0 / max-luma=1023 / log2-max-poc-lsb=8 / vui-timing-info / vui-hrd-info / slices=1 / opt-qp-pps / opt-ref-list-length-pps / no-multi-pass-opt-rps / scenecut-bias=0.05 / no-opt-cu-delta-qp / no-aq-motion / hdr / no-hdr-optrefine-level=5
    Default : Yes
    Forced : No
    Color range : Limited
    Color primaries : BT.2020
    Transfer characteristics : SMPTE ST 2084
    Matrix coefficients : BT.2020 non-constant
    Mastering display color primar : R: x=0.708000 y=0.292000, G: x=0.170000 y=0.797000, B: x=0.131000 y=0.046000, White point: x=0.312700 y=0.329000
    Mastering display luminance : min: 0.0001 cd/m2, max: 10000.0000 cd/m2
    Maximum Content Light Level : 10000 cd/m2
    Maximum Frame-Average Light Le : 180 cd/m2

    Audio #1
    ID : 2
    Format : AC-3
    Format/Info : Audio Coding 3
    Mode extension : CM (complete main)
    Format settings, Endianness : Big
    Codec ID : A_AC3
    Duration : 2 h 14 min
    Bit rate mode : Constant
    Bit rate : 384 kb/s
    Channel(s) : 6 channels
    Channel positions : Front: L C R, Side: L R, LFE
    Sampling rate : 48.0 kHz
    Frame rate : 31.250 FPS (1536 spf)
    Bit depth : 16 bits
    Compression mode : Lossy
    Delay relative to video : 24 ms
    Stream size : 369 MiB (1%)
    Title : Português AC3 5.1 @AgroBatalha
    Language : Portuguese
    Default : No
    Forced : No

    Audio #2
    ID : 3
    Format : DTS
    Format/Info : Digital Theater Systems
    Format profile : MA / Core
    Mode : 16
    Format settings, Endianness : Big
    Codec ID : A_DTS
    Duration : 2 h 13 min
    Bit rate mode : Variable / Constant
    Bit rate : 5 136 kb/s / 1 509 kb/s
    Channel(s) : 8 channels / 6 channels
    Channel positions : Front: L C R, Side: L R, Back: L R, LFE / Front: L C R, Side: L R, LFE
    Sampling rate : 48.0 kHz
    Frame rate : 93.750 FPS (512 spf)
    Bit depth : 24 bits
    Compression mode : Lossless / Lossy
    Delay relative to video : 3 ms
    Stream size : 4.80 GiB (11%)
    Title : English DTS-HD Master Audio 7.1
    Language : English
    Default : Yes
    Forced : No

    Text
    ID : 4
    Format : UTF-8
    Codec ID : S_TEXT/UTF8
    Codec ID/Info : UTF-8 Plain Text
    Duration : 2 h 5 min
    Bit rate : 27 b/s
    Count of elements : 1390
    Stream size : 25.4 KiB (0%)
    Title : Português SRT@AgroBatalha
    Language : Portuguese
    Default : Yes
    Forced : No
     
  3. ENG.PS4

    ENG.PS4 14 Anos de HTForum


    Desde 5 Jan 2005
    Côte d’Azur
    Disponibilidade
    Os modelos estarão disponíveis no Brasil no decorrer do mês de julho em lojas do varejo. Abaixo, modelos e seus preços sugeridos:

    - UN40MU6100GXZD R$ 3.299,00
    - UN43MU6100GXZD R$ 3.399,00
    - UN49MU6100GXZD R$ 3.999,00
    - UN49MU6300GXZD R$ 4.399,00
    - UN50MU6100GXZD R$ 3.999,00
    - UN55MU6100GXZD R$ 5.399,00
    - UN55MU6300GXZD R$ 5.899,00
    - UN55MU6400GXZD R$ 5.999,00
    - UN55MU6500GXZD R$ 6.499,00
    - UN55MU7000GXZD R$ 7.299,00
    - UN55MU7500GXZD R$ 7.699,00
    - UN65MU6100GXZD R$ 8.499,00
    - UN65MU6400GXZD R$ 10.999,00
    - UN65MU7000GXZD R$ 12.999,00
    - UN75MU6100GXZD R$ 16.999,00
    - UN75MU7000GXZD R$ 21.999,00
    - UN82MU7000GXZD R$ 32.499,00
     
    • 3
    • 1
    • 1
  4. br_Orion

    br_Orion Usuário

    Estou vendo a UM40MU6100GXZD por R$2,4k.
    Alguém teve experiência com ela já?
     
  5. wagneremunique

    wagneremunique Usuário


    Desde 11 Mai 2017
    são gonçalo rj
    to de olho em uma MU 6100 tbm será que é melhor que a ku 6000 ???
     
  6. ENG.PS4

    ENG.PS4 14 Anos de HTForum


    Desde 5 Jan 2005
    Côte d’Azur
    Pelos reviews não, leves mudanças esteticas
     
  7. Ratamahatta

    Ratamahatta Usuário


    Desde 7 Jul 2017
    Belo Horizonte
    Alguém realmente encontrou o modelo de 43" para vender? Em todos os sites dá como esgotado...
     
  8. JCarneiro

    JCarneiro Usuário


    Desde 6 Ago 2007
    Rio
    Boa tarde, perdi uma TV 40"de Led Sony de 2011 com uma infiltração de agua no meu apartamento,
    serei ressarcido em 2.000 reais. Estou procurando uma TV de 40 nesse patamar.
    Estou em duvidas da
    SMART TV Sony KDL-40W655D FULL HD ou da Smart TV Samsung UN40MU6100G 4K.

    Meu uso seria como monitor, para ver filmes (NETFLIX, YOUTUBE), filmes via PC com uma placa de vídeo Full HD e NET HD.
    Gostaria de experimentar a 4k, boletei por 2.150 na Fast Shop, e a Sony está a 1.700. Terei ganhos ou perdas com um painel 4k e o acabamento ruim da Samsung?
    A Sony me deixou triste por ter 2 hdmi e não ter saída de áudio digital, mas ACHO que a Sony tem o painel 120hz, já que é anunciada com 240 hz(deve ser emulado).
    Agradeço desde já os comentários e sugestões.
    Abços.
     
  9. PhantomStranger

    PhantomStranger Usuário

    32.981 11.702 766

    Desde 25 Abr 2011
    São Paulo
    Não essa Sony é 60Hz nativo!


    Motionflow™ XR 240 Hz (nativo, 60 Hz) (y)
     
    • 4
  10. JCarneiro

    JCarneiro Usuário


    Desde 6 Ago 2007
    Rio
  11. Gustavo V. da Silva

    Gustavo V. da Silva Usuário


    Desde 19 Jul 2017
    São Paulo
  12. wagneremunique

    wagneremunique Usuário


    Desde 11 Mai 2017
    são gonçalo rj
    QUERO SABER A DIFERENÇA DA KU6000 E DA MU 6100, ALGUMA COISA MELHOROU NÃO É POSSÍVEL
     
  13. wagneremunique

    wagneremunique Usuário


    Desde 11 Mai 2017
    são gonçalo rj
    PHANTOM STRANGER TA NO GRUPO NO YOUTUBE NOS FORUNS RS ta em tudo quando que é lugar rsrsrs
     
  14. JCarneiro

    JCarneiro Usuário


    Desde 6 Ago 2007
    Rio
    Na KU, segundo eu li, há problemas no descolamento da tampa traseira e com a fixação da base, além da MU estar com um OS novo. Hoje a MU está mais barata que a KU, no Golden Birthday da Fast Shop. Minha preocupação de iniciante em 4K é o upscale do computador (1920/1080) e da Net HD. Se rolar um show de imagem, penso em comprar uma placa de vídeo 4k básica, esperando a queda de preço das mesmas.
    Lembrando tambem que as MU, conforme postado anteriormente, estavam com o preço sugerido de 3.200(este mês).
    Abcos.
     
    • 1
  15. roberval99

    roberval99 Usuário


    Desde 5 Abr 2017
    sao paulo
    Alguém sabe quando a mu7000 vai tá disponível para venda?
     
  16. JCarneiro

    JCarneiro Usuário


    Desde 6 Ago 2007
    Rio
    • 1
  17. Gustavo V. da Silva

    Gustavo V. da Silva Usuário


    Desde 19 Jul 2017
    São Paulo
    Esteticamente são iguais as duas, eu vi que um dos diferenciais é o hdmi. Versões acima da mu6100 tem hdr pro, isso que eu vi superficialmente, só quando realmente vim para o brasil saberes tudo com mais detalhes sobre.
     
    • 1
  18. roberval99

    roberval99 Usuário


    Desde 5 Abr 2017
    sao paulo
  19. PhantomStranger

    PhantomStranger Usuário

    32.981 11.702 766

    Desde 25 Abr 2011
    São Paulo
    Eu!?
    Não, só posto aqui. Mais em nenhum outro lugar.
    Se tiver, é outro....
     
    • 1
  20. dirct

    dirct Usuário

    223 177 45

    Desde 20 Jan 2012
    Tarumã/SP/Brasil
    Segundo as análises da rtings a imagem e HDR da MU é exatamente o mesmo das KU, acredito que a vantagem da MU seja um SO atualizado.
     
  1. Usamos cookies próprios e de terceiros para dar um melhor serviço e mostrar publicidade. Ao continuar, aceita o seu uso.
    Fechar Aviso