Anúncio do HT Forum

Tópico Inativo.

Discussão em 'HTPCs, Media Centers e Streamers' iniciada por Fairoxx, 21 Ago 2014.

  1. Fairoxx

    Fairoxx Usuário

    4.990 5.223 701

    Desde 9 Mar 2009
    Brasil
    COMUNICADO!
    Nos foi solicitado pela administração do HTForum, que qualquer dúvida relacionada ao novo espaço, seja discutido lá.
    Sendo assim, respeitando esse pedido, não nos pronunciaremos mais aqui.

     
    Última edição: 22 Jan 2020 às 09:42
    • 20
  2. surt

    surt Usuário

    105 194 25

    Desde 30 Out 2012
    Pernambuco
    Uhuu... Tópico novinho em folha...
    o que irá acontecer com o tópico antigo?
     
  3. kalazans

    kalazans Usuário

    134 1.482 43

    Desde 2 Jan 2014
    Baltimore/Maryland
    Opa que maravilha! ficou show!
     
  4. karacamassa

    karacamassa Usuário

    132 419 1

    Desde 20 Mar 2014
    Brasil
    novo topico, nova jornada e novos audios o/
     
  5. rafa_mordor

    rafa_mordor Usuário


    Desde 13 Mai 2011
    Gaspar / Santa Catarina
    Momento importante para todos que participaram do fórum, esperamos aprender, trocar idéias e principalmente áudios por muitos anos (y) .
     
  6. val-happy

    val-happy Usuário

    937 4.306 508

    Desde 17 Jan 2007
    São Joaquim da Barra/SP/Brasil
    Filme:

    O Príncipe das Marés (The Prince of Tides - 1991)

    [​IMG]

    Audio
    Format : AC-3
    Format/Info : Audio Coding 3
    Mode extension : CM (complete main)
    Format settings, Endianness : Big
    Duration : 2h 11mn
    Bit rate mode : Constant
    Bit rate : 192 Kbps
    Channel(s) : 2 channels
    Channel positions : Front: L R
    Sampling rate : 48.0 KHz
    Bit depth : 16 bits
    Compression mode : Lossy
    Stream size : 181 MiB (100%)

    Fonte: DVD
    FPS: 29.970

    Áudio + Legendas idx/sub + Capítulos
     
    • 7
  7. Druid

    Druid Usuário


    Desde 23 Jan 2005
    Curitiba/PR/Brasil
    Vai continuar sendo o tópico aberto pelo Jin Kazama (y).

    Druid®.
     
  8. D3J0T4

    D3J0T4 Magnata

    1.153 1.434 331

    Desde 5 Set 2012
    Desconhecido
    ate que em fim :D
     
    • 1
  9. Huntsman85

    Huntsman85 Usuário

    232 14 1

    Desde 27 Mar 2013
    Brasil
    Ficou bem legal, curti.
     
  10. niltoncrf

    niltoncrf Usuário

    7.674 4.284 606

    Desde 22 Out 2010
    ***
    Estou chegando, observando...atrapalhando & ajudando...e sempre que possível, upando uns audios...
     
  11. Fairoxx

    Fairoxx Usuário

    4.990 5.223 701

    Desde 9 Mar 2009
    Brasil
    Sem Escalas (Non-Stop) [2014]
    [​IMG]
    Format : AC-3
    Duration : 1h 46mn
    Bit rate mode : Constant
    Bit rate : 448 Kbps
    Channel(s) : 6 channels
    Channel positions : Front: L C R, Side: L R, LFE
    Sampling rate : 48.0 KHz
    Bit depth : 16 bits
    Compression mode : Lossy
    Stream size : 340 MiB (100%)
    Legendas: SUP
    Fonte: BD
     
    • 6
  12. davesm

    davesm Usuário

    376 115 75

    Desde 17 Jan 2008
    Limeira - SP
    Fairoxx, só para confirmar todos áudios upados e demais dúvidas deverão ser enviadas aqui mesmo a partir de hoje?
     
  13. Fairoxx

    Fairoxx Usuário

    4.990 5.223 701

    Desde 9 Mar 2009
    Brasil
    Sim. (y)
     
    Última edição: 5 Fev 2015
  14. gregofisio

    gregofisio Usuário

    124 18 1

    Desde 29 Abr 2009
    Rio de Janeiro
    Show de bola, maior visibilidade ao grupo!!!
     
  15. ericpa06

    ericpa06 Usuário

    737 13 1

    Desde 15 Mai 2010
    São Paulo/São Paulo/Brasil
    As Aventuras de Peabody e Sherman (Mr. Peabody & Sherman) 2014
    [​IMG]
    Format : AC-3
    Format/Info : Audio Coding 3
    Mode extension : CM (complete main)
    Format settings, Endianness : Big
    Duration : 1h 32mn
    Bit rate mode : Constant
    Bit rate : 384 Kbps
    Channel count : 6 channels
    Channel positions : Front: L C R, Side: L R, LFE
    Sampling rate : 48.0 KHz
    Bit depth : 16 bits
    Compression mode : Lossy
    Stream size : 254 MiB (100%)
     
    • 4
  16. timartinelli

    timartinelli Usuário

    1.118 1.175 601

    Desde 23 Jun 2009
    Indaiatuba/SP/Brasil
    Boa noite!

    Casa nova!:rofl: Mesma Galera BOA!!!:brinde: E que seja mais 5 anos, 10 anos, 15 anos.....:festa::festa::festa:

    Parabéns pelo tópico inicial Marcos!(y)

    Bom o que precisarem de mim podem falar.

    Abraços.
     
  17. carloselon

    carloselon Elon

    53 251 17

    Desde 27 Out 2008
    Taboão da Serra
    [h=3]O Contrato (2006)[/h] (The Contract)

    [​IMG]
    Áudio
    Formato : AC-3
    Formato/Informações : Audio Coding 3
    Format_Settings_ModeExtension : CM (complete main)
    Conf do Formato, Endianness : Big
    Duração : 1h 36mn
    Modo da taxa de bits : Constante
    Taxa de bits : 192 Kbps
    Nº de canais : 2 canais
    Posições dos canais : Front: L R
    Taxa de amostragem : 48.0 KHz
    BitDepth/String : 16 bits
    Tamanho da Faixa : 132 MiB (100%)
    Legendas Idx/Sup
     
    • 5
  18. dinho1903

    dinho1903 Usuário


    Desde 4 Nov 2008
    Porto Alegre - RS
    Show de bola! Parabéns pelo novo cantinho! :brinde:
     
  19. allan_7l

    allan_7l Usuário

    325 107 78

    Desde 21 Abr 2013
    brasil
    não teve a confirmação de nada, eu não sou esse cara, ele te enganou com essa conta fake ai(y) esse cara é maluco:lol:

    os caras agradeceram ele ainda kkkkkkkkkk
     
  20. surt

    surt Usuário

    105 194 25

    Desde 30 Out 2012
    Pernambuco
    O Reino dos Gatos (Neko no Ongaeshi) 2002

    [​IMG]

    Audio
    Format: AC-3
    Format/Info: Audio Coding 3
    Mode extension: CM (complete main)
    Format settings, Endianness: Big
    Duration: 1h 11mn
    Bit rate mode: Constant
    Bit rate: 192 Kbps
    Channel(s): 2 channels
    Channel positions: Front: L R
    Sampling rate: 48.0 KHz
    Bit depth: 16 bits
    Compression mode: Lossy
    Stream size: 98.9 MiB (100%)
    Legenda: IDX/SUB + CAPS

    Esse aqui é para substituir o AAC que tinha postado ano passado.
     
  1. Usamos cookies próprios e de terceiros para dar um melhor serviço e mostrar publicidade. Ao continuar, aceita o seu uso.
    Fechar Aviso