Anúncio do HT Forum

Tópico Inativo.

Discussão em 'HTPCs, Media Centers e Streamers' iniciada por Fairoxx, 21 Ago 2014.

  1. LoneWolf

    LoneWolf Lobisomem


    Desde 1 Dez 2013
    Londres
    Che 2 - A Guerrilha (Che: Part Two) 2008

    [​IMG]

    Audio
    Format : AC-3
    Format/Info : Audio Coding 3
    Mode extension : CM (complete main)
    Format settings, Endianness : Big
    Duration : 2h 12mn
    Bit rate mode : Constant
    Bit rate : 192 Kbps
    Channel(s) : 2 channels
    Channel positions : Front: L R
    Sampling rate : 48.0 KHz
    Bit depth : 16 bits
    Compression mode : Lossy
    Stream size : 182 MiB (100%)


    IDX/SUB PT-BR + ENG + Chapters
     
  2. olevita

    olevita Usuário


    Desde 29 Dez 2011
    Boa Vista - RR

    ktn, tenho um áudio aqui do Caravana da coragem 2 extraído do filme que baixei a algum tempo. Não tem em nenhuma tabela. Nesse caso posso upar na secundaria, correto? Obrigado
     
  3. LoneWolf

    LoneWolf Lobisomem


    Desde 1 Dez 2013
    Londres
  4. olevita

    olevita Usuário


    Desde 29 Dez 2011
    Boa Vista - RR
    Não foi extraido do dvd, tenho um avi do filme. Está em mp3.

    Audio
    Format : MPEG Audio
    Format version : Version 1
    Format profile : Layer 3
    Duration : 1h 37mn
    Bit rate mode : Constant
    Bit rate : 128 Kbps
    Channel(s) : 2 channels
    Sampling rate : 44.1 KHz
    Compression mode : Lossy
    Stream size : 88.7 MiB (100%)
    Writing library : LAME3.97 (beta)
     
  5. Fairoxx

    Fairoxx Usuário

    4.990 5.223 701

    Desde 9 Mar 2009
    Brasil
    Existe áudio original para esse filme, então não poste esse áudio convertido, minha luta é justamente para que esses áudios convertidos NÃO se espalhem na web.
    Lembre-se, a tabela secundaria foi criada com o intuito de postarmos somente áudios que não ganharam dublagem para DVD/BD, exemplo, dublagens clássicas de VHS, dublagens de emissoras de TVs, ou então uma edição de um áudio para algum release, como por exemplo o Druid fez para o filme A Chamada, o Faleny fez para Jogos Mortais, e eu fiz para Jack: O Caçador de Gigantes.
     
  6. olevita

    olevita Usuário


    Desde 29 Dez 2011
    Boa Vista - RR

    Ok, entendido e resolvido! Vou tentar conseguir o dvd para extrair o original do 2º filme, pois na tabela só tem o 1º. (y)
     
  7. Oh Yeah

    Oh Yeah Usuário

    24 17 1

    Desde 29 Set 2013
    Bahia
    The Following 1° Temporada

    [​IMG]


    Format : AC-3
    Duration : 40mn+
    Bit rate mode : Constant
    Bit rate : 192 Kbps
    Channel(s) : 2 channels
    Channel positions : Front: L R
    Sampling rate : 48.0 KHz
    Bit depth : 16 bits
    Compression mode : Lossy
    Stream size : 62.6 MiB (100%)
    Legendas: IDX/SUB
    Fonte: DVD

    Coloquei o FPS em 29.970 mas não tenho certeza se é esse mesmo, amanha eu confirmo e qualquer coisa peço pra alguém mudar pra mim x.x (emprestei meu HD que tinha os dvd-r, por isso não tem como eu confirmar isso agora).

    Parabéns pelo novo tópico, ficou bem bacana e organizado :aplauso:
     
  8. rafa.lopes

    rafa.lopes Usuário


    Desde 24 Mai 2010
    Porto Alegre/RS
    Spartacus (1960)
    Spartacus - Special Edition




    [​IMG]



    Disc 1
    Audio
    Format: AC-3
    Format/Info: Audio Coding 3
    Mode extension: CM (complete main)
    Format settings, Endianness: Big
    Duration: 1h 50mn
    Bit rate mode: Constant
    Bit rate: 384 Kbps
    Channel(s): 6 channels
    Channel positions: Front: L C R, Side: L R, LFE
    Sampling rate: 48.0 KHz
    Bit depth: 16 bits
    Compression mode: Lossy
    Stream size: 303 MiB (100%)


    Disc 2
    Audio
    Format: AC-3
    Format/Info: Audio Coding 3
    Mode extension: CM (complete main)
    Format settings, Endianness: Big
    Duration: 1h 26mn
    Bit rate mode: Constant
    Bit rate: 384 Kbps
    Channel(s): 6 channels
    Channel positions: Front: L C R, Side: L R, LFE
    Sampling rate: 48.0 KHz
    Bit depth: 16 bits
    Compression mode: Lossy
    Stream size: 237 MiB (100%)




    Fonte: DVD
    Legenda:IDX/SUB




    Áudio + Legendas idx/sub + Capítulos
     
  9. Bibiu

    Bibiu Usuário

    320 2.890 118

    Desde 20 Mar 2014
    Fortaleza - CE
    Verdade Nua (Where the Truth Lies) 2005
    [​IMG]
    Audio
    Format : AC-3
    Format/Info : Audio Coding 3
    Mode extension : CM (complete main)
    Format settings, Endianness : Big
    Duration : 1h 47mn
    Bit rate mode : Constant
    Bit rate : 224 Kbps
    Channel(s) : 2 channels
    Channel positions : Front: L R
    Sampling rate : 48.0 KHz
    Bit depth : 16 bits
    Compression mode : Lossy
    Stream size : 172 MiB (100%)
    FONTE: DVD
    LEGENDAS: IDX/SUB + CAPS.
     
  10. val-happy

    val-happy Usuário

    937 4.306 508

    Desde 17 Jan 2007
    São Joaquim da Barra/SP/Brasil
    Filme:

    As Branquelas (White Chicks - 2004)

    [​IMG]

    Audio
    Format : AC-3
    Format/Info : Audio Coding 3
    Mode extension : CM (complete main)
    Format settings, Endianness : Big
    Duration : 1h 54mn
    Bit rate mode : Constant
    Bit rate : 448 Kbps
    Channel(s) : 6 channels
    Channel positions : Front: L C R, Side: L R, LFE
    Sampling rate : 48.0 KHz
    Bit depth : 16 bits
    Compression mode : Lossy
    Stream size : 368 MiB (100%)

    Fonte: DVD
    FPS: 29.970

    Áudio + Legendas idx/sub + Capítulos
     
  11. rafa_mordor

    rafa_mordor Usuário


    Desde 13 Mai 2011
    Gaspar / Santa Catarina
    Isso amigo, é Twin Peaks sim, não conhecia o theparadox, site muito bom. Obrigado pela ajuda (y).
     
  12. val-happy

    val-happy Usuário

    937 4.306 508

    Desde 17 Jan 2007
    São Joaquim da Barra/SP/Brasil
    Filme:

    Revólver (Revolver - 2005)

    [​IMG]

    Audio
    Format : AC-3
    Format/Info : Audio Coding 3
    Mode extension : CM (complete main)
    Format settings, Endianness : Big
    Duration : 1h 45mn
    Bit rate mode : Constant
    Bit rate : 192 Kbps
    Channel(s) : 2 channels
    Channel positions : Front: L R
    Sampling rate : 48.0 KHz
    Bit depth : 16 bits
    Compression mode : Lossy
    Stream size : 145 MiB (100%)



    Fonte: DVD
    FPS: 29.970

    Áudio + Legendas idx/sub + Capítulos
     
  13. MAAH SOUZA

    MAAH SOUZA Usuário

    2 0 2

    Desde 27 Ago 2014
    São Paulo
    Fairoxx .. de boa ?

    cara eu vi seu video .. e tenho uma duvida...
    no qual eu tirei 02 prints e gostaria de saber a sua resposta.. quando possivel ....

    a primeira imagem é de 02 audios o de cima Eng e o de baixo PT-BR..

    http://i.minus.com/iIOdyJge2wDkp.jpg

    eu alinhei certo (( acredito ))
    o valor que eu recebo seria esse:

    http://i.minus.com/iIOdyJge2wDkp.jpg

    já verifiquei e não esta em cima...
    o audio em PT-BR tem o mesmo tempo que o inglês
    porém ele sempre sai um pouco adiantando...
    extrai de um DVD-R...que eu tenho...

    pode me ajudar dps ?


     
  14. LoneWolf

    LoneWolf Lobisomem


    Desde 1 Dez 2013
    Londres
    No blog do teimoso tem esse DVD 2 em 1 do Caravana da Coragem.
    Aliás esse filme é bastante nostálgico pra mim. Aqueles Ewoks com cara de Dilma marcaram a minha infância.

    [​IMG]
     
  15. timartinelli

    timartinelli Usuário

    1.118 1.175 601

    Desde 23 Jun 2009
    Indaiatuba/SP/Brasil
    [h=1]Garfield: O Filme (2004)
    "Garfield" (original title)[/h][​IMG]

    Audio
    Format : AC-3
    Format/Info : Audio Coding 3
    Mode extension : CM (complete main)
    Format settings, Endianness : Big
    Duration : 1h 20mn
    Bit rate mode : Constant
    Bit rate : 448 Kbps
    Channel(s) : 6 channels
    Channel positions : Front: L C R, Side: L R, LFE
    Sampling rate : 48.0 KHz
    Bit depth : 16 bits
    Compression mode : Lossy
    Stream size : 257 MiB (100%)

    Fonte: Blu-ray
    Legendas SUP(forçada também) + CAP.
     
  16. Edvald

    Edvald Usuário


    Desde 27 Dez 2010
    Santa Catarina
    [​IMG]
    IMAX - Oceano Selvagem (2008)
    IMAX - Wild Ocean (2008) (original title)


    Format: DTS
    Format/Info: Digital Theater Systems
    Mode: 16
    Format settings, Endianness: Big
    Duration: 42mn 13s
    Bit rate mode: Constant
    Bit rate: 768 Kbps
    Channel count: 6 channels
    Channel positions: Front: L C R, Side: L R, LFE
    Sampling rate: 48.0 KHz
    Bit depth: 24 bits
    Compression mode: Lossy
    Stream size: 232 MiB
    Frame rate: 23.976 fps


    Fonte: Blu-Ray


    Inclui legendas SUP + Menu de Capítulos
     
  17. Fairoxx

    Fairoxx Usuário

    4.990 5.223 701

    Desde 9 Mar 2009
    Brasil
    Que filme vc esta sincronizando?
    Para que release?
    Já verificou se os fps do áudio é o mesmo do vídeo?
    Verificou se a versão do DVD é a mesma do BD?
    Verificou se o áudio não está corrompido?

    PS. Vc postou duas vezes a mesma screen.
     
  18. rafa.lopes

    rafa.lopes Usuário


    Desde 24 Mai 2010
    Porto Alegre/RS
    Frankenstein (1931)
    Frankenstein


    [​IMG]




    Audio
    Format: AC-3
    Format/Info: Audio Coding 3
    Mode extension: CM (complete main)
    Format settings, Endianness: Big
    Duration: 1h 10mn
    Bit rate mode: Constant
    Bit rate: 192 Kbps
    Channel(s): 2 channels
    Channel positions: Front: L R
    Sampling rate: 48.0 KHz
    Bit depth: 16 bits
    Compression mode: Lossy
    Stream size: 96.1 MiB (100%)


    A Noiva de Frankenstein (1935)
    Bride of Frankenstein


    [​IMG]



    Audio
    Format: AC-3
    Format/Info: Audio Coding 3
    Mode extension: CM (complete main)
    Format settings, Endianness: Big
    Duration: 1h 14mn
    Bit rate mode: Constant
    Bit rate: 192 Kbps
    Channel(s): 2 channels
    Channel positions: Front: L R
    Sampling rate: 48.0 KHz
    Bit depth: 16 bits
    Compression mode: Lossy
    Stream size: 102 MiB (100%)



    Fontes: DVD
    Legendas:IDX/SUB


    Áudio + Legendas idx/sub + Capítulos
     
  19. BELIAL

    BELIAL EYES OF SATAN

    98 239 14

    Desde 30 Mar 2014
    HELL
    Lolita 1962

    [​IMG]

    Áudio
    Formato : AC-3
    Duração : 2h 33mn
    Modo da taxa de bits : Constante
    Taxa de bits : 192 Kbps
    Nº de canais : 1 canal
    Posições dos canais : Front: C
    Taxa de amostragem : 48.0 KHz
    BitDepth/String : 16 bits
    Tamanho da Faixa : 211 MiB (100%)

    FONTE-BD

    [​IMG]
     
  20. rafa.lopes

    rafa.lopes Usuário


    Desde 24 Mai 2010
    Porto Alegre/RS
    Mestre dos Mares - O Lado Mais Distante do Mundo (2003)
    Master and Commander: The Far Side of the World




    [​IMG]




    Audio
    Format: AC-3
    Format/Info: Audio Coding 3
    Mode extension: CM (complete main)
    Format settings, Endianness: Big
    Duration: 2h 18mn
    Bit rate mode: Constant
    Bit rate: 384 Kbps
    Channel(s): 6 channels
    Channel positions: Front: L C R, Side: L R, LFE
    Sampling rate: 48.0 KHz
    Bit depth: 16 bits
    Compression mode: Lossy
    Stream size: 380 MiB (100%)


    Fonte: DVD
    Legenda:IDX/SUB


    Áudio + Legendas idx/sub + Capítulos
     
  1. Usamos cookies próprios e de terceiros para dar um melhor serviço e mostrar publicidade. Ao continuar, aceita o seu uso.
    Fechar Aviso