Anúncio do HT Forum

Tópico Inativo.

Discussão em 'HTPCs, Media Centers e Streamers' iniciada por Fairoxx, 21 Ago 2014.

  1. 12riddickvgp12

    12riddickvgp12 Usuário

    877 1.425 923

    Desde 25 Fev 2012
    São Paulo
    [​IMG]

    Audio : 21 Jump Street 2012
    Format : DTS
    Format/Info : Digital Theater Systems
    Mode : 16
    Format settings, Endianness : Big
    Duration : 1h 49mn
    Bit rate mode : Constant
    Bit rate : 1 509 Kbps
    Channel(s) : 6 channels
    Channel positions : Front: L C R, Side: L R, LFE
    Sampling rate : 48.0 KHz
    Bit depth : 24 bits
    Compression mode : Lossy
    Stream size : 1.16 GiB (100%)


    Legendas SUP e menu de capítulos.


    uma Pergunta: Alguém ai sabe quando sairá Anjos da Lei 2 (22 Jump Street)?
     
  2. SoN_

    SoN_ Usuário

    91 62 13

    Desde 26 Mar 2011
    Marília-SP
    O Hobbit: A Desolação de Smaug - 2013
    [​IMG]
    Audio
    Format : AC-3
    Format/Info : Audio Coding 3
    Mode extension : CM (complete main)
    Format settings, Endianness : Big
    Duration : 2h 41mn
    Bit rate mode : Constant
    Bit rate : 384 Kbps
    Channel(s) : 6 channels
    Channel positions : Front: L C R, Side: L R, LFE
    Sampling rate : 48.0 KHz
    Bit depth : 16 bits
    Compression mode : Lossy
    Stream size : 443 MiB (100%)


    Fonte: DVDR
    Legendas IDX/SUB portugues e ingles
    Capitulos
    + Bonus do DVD
     
  3. ericpa06

    ericpa06 Usuário

    737 13 1

    Desde 15 Mai 2010
    São Paulo/São Paulo/Brasil
    To gostando de ver! Bastantes caras novas por aqui :)
     
  4. olevita

    olevita Usuário


    Desde 29 Dez 2011
    Boa Vista - RR
    Filme: O Caçador de Zumbis (Zombie Hunter - 2013)

    [​IMG]
    Audio
    Format : AC-3
    Format/Info : Audio Coding 3
    Mode extension : CM (complete main)
    Format settings, Endianness : Big
    Duration : 1h 32mn
    Bit rate mode : Constant
    Bit rate : 192 Kbps
    Channel(s) : 2 channels
    Channel positions : Front: L R
    Sampling rate : 48.0 KHz
    Bit depth : 16 bits
    Compression mode : Lossy
    Stream size : 127 MiB (100%)

    Fonte: DVD
    FPS: 29.970

    Áudio + Legendas idx/sub + Capítulos
     
  5. val-happy

    val-happy Usuário

    937 4.305 508

    Desde 17 Jan 2007
    São Joaquim da Barra/SP/Brasil
    Filme:

    Menina de Ouro (Million Dollar Baby - 2004)

    [​IMG]

    Audio
    Format : AC-3
    Format/Info : Audio Coding 3
    Mode extension : CM (complete main)
    Format settings, Endianness : Big
    Duration : 2h 12mn
    Bit rate mode : Constant
    Bit rate : 192 Kbps
    Channel(s) : 2 channels
    Channel positions : Front: L R
    Sampling rate : 48.0 KHz
    Bit depth : 16 bits
    Compression mode : Lossy
    Stream size : 182 MiB (100%)

    Fonte: DVD
    FPS: 29.970

    Áudio + Legendas idx/sub + Capítulos
     
  6. Druid

    Druid Usuário


    Desde 23 Jan 2005
    Curitiba/PR/Brasil
    A Culpa É Das Estrelas aka The Fault in Our Stars 2014 (Extended)

    [​IMG]

    Format : AC-3
    Format/Info : Audio Coding 3
    Mode extension : CM (complete main)
    Format settings, Endianness : Big
    Codec ID : A_AC3
    Duration : 2h 12mn
    Bit rate mode : Constant
    Bit rate : 384 Kbps
    Channel(s) : 6 channels
    Channel positions : Front: L C R, Side: L R, LFE
    Sampling rate : 48.0 KHz
    Bit depth : 16 bits
    Compression mode : Lossy
    Stream size : 365 MiB (7%)
    Title : Portugues AC3 5.1- BRENYS
    Language : Portuguese
    Default : Yes
    Forced : No

    Fonte MKV (Brenys BJ2.ME)

    .:: Upado na Tabela De Áudios Editados/Raros/Duvidosos aka Tabela Secundária ::.

    Druid®.
     
  7. Bibiu

    Bibiu Usuário

    320 2.890 118

    Desde 20 Mar 2014
    Fortaleza - CE
    Curvas da Vida (Trouble with the Curve) 2012
    [​IMG]
    Audio
    Format : AC-3
    Format/Info : Audio Coding 3
    Mode extension : CM (complete main)
    Format settings, Endianness : Big
    Duration : 1h 48mn
    Bit rate mode : Constant
    Bit rate : 384 Kbps
    Channel(s) : 6 channels
    Channel positions : Front: L C R, Side: L R, LFE
    Sampling rate : 48.0 KHz
    Bit depth : 16 bits
    Compression mode : Lossy
    Stream size : 299 MiB (100%)
    FONTE: DVD
    LEGENDAS: IDX/SUB + CAPS.
     
  8. 12riddickvgp12

    12riddickvgp12 Usuário

    877 1.425 923

    Desde 25 Fev 2012
    São Paulo
    Estão zoando a Tabela de novo

    - - - Atualizado - - -

    Bibiu a minhateca.com é confiável? como funciona?
     
  9. Bibiu

    Bibiu Usuário

    320 2.890 118

    Desde 20 Mar 2014
    Fortaleza - CE
    Ele e bom, alem de ser ilimitado os download são rápidos. Comecei a testa ele esses dia pq o mega as vezes fica dando erro.(y)
     
  10. Oh Yeah

    Oh Yeah Usuário

    24 17 1

    Desde 29 Set 2013
    Bahia
    Tem algum desocupado zoando a tabela de novo =/
     
  11. kalazans

    kalazans Usuário

    134 1.482 43

    Desde 2 Jan 2014
    Baltimore/Maryland
    [h=1]Pense como Eles Também (Think Like a Man Too) 2014[/h]
    [​IMG]

    Audio
    Format : DTS
    Format/Info : Digital Theater Systems
    Format profile : MA / Core
    Duration : 1h 45mn
    Bit rate mode : Variable
    Bit rate : 2 065 Kbps / 1 510 Kbps
    Channel(s) : 6 channels
    Channel positions : Front: L C R, Side: L R, LFE
    Sampling rate : 48.0 KHz
    Bit depth : 16 bits
    Compression mode : Lossless / Lossy



    Legenda: .Sup
    Fonte: BD-R
     
  12. 12riddickvgp12

    12riddickvgp12 Usuário

    877 1.425 923

    Desde 25 Fev 2012
    São Paulo
    [​IMG]

    Audio : Pacific Rim 2013
    Format : AC-3
    Format/Info : Audio Coding 3
    Mode extension : CM (complete main)
    Format settings, Endianness : Big
    Duration : 2h 11mn
    Bit rate mode : Constant
    Bit rate : 640 Kbps
    Channel(s) : 6 channels
    Channel positions : Front: L C R, Side: L R, LFE
    Sampling rate : 48.0 KHz
    Bit depth : 16 bits
    Compression mode : Lossy
    Stream size : 601 MiB (100%)

    Legendas SUP e menu de capítulos.
     
  13. olevita

    olevita Usuário


    Desde 29 Dez 2011
    Boa Vista - RR

    Pode colocar o mesmo áudio mais de 1 vez irmão? Porque esse eu já vi 2 iguais na tabela primária. Só para o meu conhecimento, obrigado.

    :tchau:
     
  14. ktn

    ktn Usuário


    Desde 13 Ago 2013
    brasil
    Quando se trata de áudios originais com legendas de acordo com as regras, quanto mais melhor, assim evita de ficar sem opções de download quando algum link ficar off (y)
     
  15. olevita

    olevita Usuário


    Desde 29 Dez 2011
    Boa Vista - RR

    Ok brother. Obrigado pelos esclarecimentos. (y)

    Semeando sempre!
     
  16. Bibiu

    Bibiu Usuário

    320 2.890 118

    Desde 20 Mar 2014
    Fortaleza - CE
    Mundo Proibido (Cool World) 1992
    [​IMG]
    Audio
    Format : AC-3
    Format/Info : Audio Coding 3
    Mode extension : CM (complete main)
    Format settings, Endianness : Big
    Duration : 1h 34mn
    Bit rate mode : Constant
    Bit rate : 448 Kbps
    Channel(s) : 2 channels
    Channel positions : Front: L R
    Sampling rate : 48.0 KHz
    Bit depth : 16 bits
    Compression mode : Lossy
    Stream size : 304 MiB (100%)
    FONTE: DVD AUTORADO.
    LEGENDAS: IDX/SUP + CAPS
    TABELA SECUNDARIA.
     
  17. LoneWolf

    LoneWolf Lobisomem


    Desde 1 Dez 2013
    Londres
    Sem querer me intrometer mas já me intrometendo...
    Esse servidor é ótimo, cheio de opções, praticamente uma rede social para compartilhamento de arquivos. As duas melhores coisas nele são o fato de ser gratuito e a disponibilidade de espaço "sem limites", porém é justamente isso que me preocupa...sem limites até quando? Não existe servidor infinito. Além disso tu pode copiar arquivos de outros usuários pra tua conta (outra grande sacada), mas nessas de copiar arquivos já tem muitos usuários com dezenas de Terabytes no servidor do minhateca... Outra coisa, gratuito até quando...? Sabemos que o minhateca é uma cópia fiel do servidor abelhas.pt (que talvez seja cópia de algum servidor russo), a diferença é que o abelhas conta com um sistema de pontos, no qual quanto mais pessoas baixarem os arquivos que você upou, mais pontos você ganha (a pontuação varia de acordo com o tamanho do arquivo também) mas por enquanto ainda não foi mostrado para que esses pontos irão servir...
    Agora, a coisa que mais me preocupa no minhateca é o fato de ele ser um sistema brasileiro, o que o torna ainda menos confiável, tendo em vista que aqui nesse país ninguém leva nada a sério, é tudo no oba-oba.

    Tirando isso, na minha opinião, servidores como o abelhas.pt e o minhateca levaram a ideia de compartilhamento para outro nível.
     
  18. 12riddickvgp12

    12riddickvgp12 Usuário

    877 1.425 923

    Desde 25 Fev 2012
    São Paulo
    como nosso amigo falou, pode sim ... este áudio só tem dois links um do mega o qual está on e o do 4shared que está off, e o meu que é uma segunda opção

    entendi, você quis dizer que BR'S são BR'S kkkkkkkkkkkkkkkkkkkkkkkkkk, mas falando sério também estou com receio de UPAR algo muito importante pra lá e depois de um tempo apagarem
     
  19. LoneWolf

    LoneWolf Lobisomem


    Desde 1 Dez 2013
    Londres
    Pelos comentários e notas, esse filme deve ser bom:

    Cinzas do Passado Redux (Dung che sai duk redux) (Ashes of Time Redux) 1994

    [​IMG]

    Audio
    Format : AC-3
    Format/Info : Audio Coding 3
    Mode extension : CM (complete main)
    Format settings, Endianness : Big
    Duration : 1h 29mn
    Bit rate mode : Constant
    Bit rate : 224 Kbps
    Channel(s) : 2 channels
    Channel positions : Front: L R
    Sampling rate : 48.0 KHz
    Bit depth : 16 bits
    Compression mode : Lossy
    Stream size : 144 MiB (100%)

    IDX/SUB PT-BR + ENG + Chapters

    - - - Atualizado - - -

    :lol:
    Pois é, também fico com um pé atrás, mas pra quem tem muito conteúdo e quer fazer backup online, o jeito é arriscar, já que outros servidores FREE oferecem pouco espaço.
     
  20. Fairoxx

    Fairoxx Usuário

    4.990 5.223 701

    Desde 9 Mar 2009
    Brasil
    Parece que eu to vendo a historia se repetir, quem se lembra daquele servidor de nome estranho, Peejeshare, que surgiu prometendo mil maravilhas, sumiu na mesma velocidade que surgiu, deixando um monte de links off na tabela, pois todo mundo começou a postar só nele.
    Eu não vejo vantagem em trocar o certo pelo duvidoso, MEGA e 4shared são servidores já consolidados à anos, e ainda tem o MediaFire correndo por fora. A pergunta que tem que ser feita é, até quando esse Minhateca vai durar??? Quando começar o fluxo de trafego pra valer na redes deles, eles vão arreigar.
     
  1. Usamos cookies próprios e de terceiros para dar um melhor serviço e mostrar publicidade. Ao continuar, aceita o seu uso.
    Fechar Aviso