Anúncio do HT Forum

Tópico Inativo.

Discussão em 'HTPCs, Media Centers e Streamers' iniciada por Fairoxx, 21 Ago 2014.

  1. LoneWolf

    LoneWolf Lobisomem


    Desde 1 Dez 2013
    Londres
    No meu caso eu só upava no Mega, mas ele começou a dar pau e agora to upando no 4Shared (muito mais rápido aqui). O Mediafire pra mim é um dos piores, pois deletam os arquivos com frequência. O minhateca eu só uso pra copiar arquivos, por exemplo, muitos DVDs do blog do teimoso são upados nesse servidor, daí eu copio pra minha conta pra poder baixar mais tarde.

    ------------------------------------------------------------------------------------------------------------------

    O Pequeno Grande Guerreiro (Da Bing Xiao Jiang) (Little Big Soldier) 2010

    [​IMG]

    Audio
    Format : AC-3
    Format/Info : Audio Coding 3
    Mode extension : CM (complete main)
    Format settings, Endianness : Big
    Duration : 1h 35mn
    Bit rate mode : Constant
    Bit rate : 384 Kbps
    Channel(s) : 6 channels
    Channel positions : Front: L C R, Side: L R, LFE
    Sampling rate : 48.0 KHz
    Bit depth : 16 bits
    Compression mode : Lossy
    Stream size : 262 MiB (100%)

    IDX/SUB + Chapters
     
  2. val-happy

    val-happy Usuário

    937 4.306 508

    Desde 17 Jan 2007
    São Joaquim da Barra/SP/Brasil
    Filme:

    Refém do Silêncio (Don't Say a Word - 2001)

    [​IMG]

    Audio
    Format : AC-3
    Format/Info : Audio Coding 3
    Mode extension : CM (complete main)
    Format settings, Endianness : Big
    Duration : 1h 53mn
    Bit rate mode : Constant
    Bit rate : 448 Kbps
    Channel(s) : 6 channels
    Channel positions : Front: L C R, Side: L R, LFE
    Sampling rate : 48.0 KHz
    Bit depth : 16 bits
    Compression mode : Lossy
    Stream size : 364 MiB (100%)

    Fonte: Bluray
    FPS: 23.976

    Áudio + Legendas sup + Capítulos


     
  3. Fairoxx

    Fairoxx Usuário

    4.990 5.223 701

    Desde 9 Mar 2009
    Brasil
    Tenho áudio no MediaFire que já estão lá a 2 anos, em relação ao MEGA, como já foi explicado à alguns posts atrás basta instalar a extensão do MEGA que resolve o problema.

    [​IMG]
     
  4. LoneWolf

    LoneWolf Lobisomem


    Desde 1 Dez 2013
    Londres
    Outro filme bem conceituado:

    O Profeta (Un Prophète) (A Prophet) 2009

    [​IMG]

    Audio
    Format : AC-3
    Format/Info : Audio Coding 3
    Mode extension : CM (complete main)
    Format settings, Endianness : Big
    Duration : 2h 35mn
    Bit rate mode : Constant
    Bit rate : 384 Kbps
    Channel(s) : 6 channels
    Channel positions : Front: L C R, Side: L R, LFE
    Sampling rate : 48.0 KHz
    Bit depth : 16 bits
    Compression mode : Lossy
    Stream size : 427 MiB (100%)

    IDX/SUB + Chapters

    - - - Atualizado - - -

    Bom, é como eu disse: uso o minhateca para copiar Isos de DVD e releases MKV pra poder baixar mais tarde. Uso o 4Shared pra upar áudios. Áudios são arquivos pequenos e não me arrisco a upar num servidor relativamente novo.
    Sobre essa extensão, eu já tenho ela instalada no Chrome há algum tempo, mesmo assim não resolveu, e de qualquer forma eu uso o Opera (muito mais prático e leve para mim), acredito que essas complicações com o Mega sejam temporárias, então outro dia eu volto a upar lá.

    - - - Atualizado - - -

    Ilustre desconhecido:

    Chumbo Quente (Bull of the West) 1972



    [​IMG]

    Audio
    Format : AC-3
    Format/Info : Audio Coding 3
    Mode extension : CM (complete main)
    Format settings, Endianness : Big
    Duration : 1h 33mn
    Bit rate mode : Constant
    Bit rate : 192 Kbps
    Channel(s) : 2 channels
    Channel positions : Front: L R
    Sampling rate : 48.0 KHz
    Bit depth : 16 bits
    Compression mode : Lossy
    Stream size : 129 MiB (100%)

    IDX/SUB + Chapters
     
  5. olevita

    olevita Usuário


    Desde 29 Dez 2011
    Boa Vista - RR

    Estou começando a usar o MEGA agora, realmente ele esta meio instável. As vezes para o up e tem que carregar de novo, mais fora isso ta indo devagar. Vou instalar essa extensão pra ver. Aonde encontro ela, nas extensões para o Chrome mesmo?
     
  6. Druid

    Druid Usuário


    Desde 23 Jan 2005
    Curitiba/PR/Brasil
    Procuro pelo áudio pt-br deste filme: Shaolin 2011 com Jackie Chan :), se alguém tiver ou conseguir e puder UPAR na tabela, agradeço pela ajuda (y).

    [​IMG]

    Druid®
     
  7. LoneWolf

    LoneWolf Lobisomem


    Desde 1 Dez 2013
    Londres
    O Combate (Everyman´s War) 2009

    [​IMG]

    Audio
    Format : AC-3
    Format/Info : Audio Coding 3
    Mode extension : CM (complete main)
    Format settings, Endianness : Big
    Duration : 1h 44mn
    Bit rate mode : Constant
    Bit rate : 224 Kbps
    Channel(s) : 2 channels
    Channel positions : Front: L R
    Sampling rate : 48.0 KHz
    Bit depth : 16 bits
    Compression mode : Lossy
    Stream size : 168 MiB (100%)

    IDX/SUB PT-BR + ENG + Chapters

    - - - Atualizado - - -

    :saco: A capa mais clichê do mundo:

    Herói (Hero Wanted) 2008


    [​IMG]

    Audio
    Format : AC-3
    Format/Info : Audio Coding 3
    Mode extension : CM (complete main)
    Format settings, Endianness : Big
    Duration : 1h 34mn
    Bit rate mode : Constant
    Bit rate : 224 Kbps
    Channel(s) : 2 channels
    Channel positions : Front: L R
    Sampling rate : 48.0 KHz
    Bit depth : 16 bits
    Compression mode : Lossy
    Stream size : 152 MiB (100%)

    IDX/SUB + Chapters
     
  8. ericpa06

    ericpa06 Usuário

    737 13 1

    Desde 15 Mai 2010
    São Paulo/São Paulo/Brasil
    Geralmente, uma boa forma de saber se os links de um servidor duram por bastante tempo, é pegar e procurar links daqueles servidor upados a algum tempo atrás (tipo, procura uns links de uns 2, 3 anos atrás, e vê se ainda estão ON). Eu sempre deixo essa dica. Foi assim que eu descobri o FilesFlash, ele é bem desconhecido, mas muito raramente deleta links, e já existe a algum tempo... (mas pra baixar é bem ruinzinho)
     
  9. Fairoxx

    Fairoxx Usuário

    4.990 5.223 701

    Desde 9 Mar 2009
    Brasil
  10. ktn

    ktn Usuário


    Desde 13 Ago 2013
    brasil
    Pior que uso a extensão há um bom tempo, antes não dava mais pra usar, mas continua cheio de bugs para upar.
     
  11. olevita

    olevita Usuário


    Desde 29 Dez 2011
    Boa Vista - RR
    Como prometido adicionado A Batalha de Endor. Aproveitei o embalo e coloquei os 2 logo. (y)


    Filme: Star Wars Ewok Adventures: Caravana da Coragem - 1984
    / A Batalha por Endor - 1985
    (Star Wars Ewok Adventures: Caravan of Courage
    / The Battle For Endor)

    [​IMG]
    Caravana da Coragem - 1984
    Audio

    Format : AC-3
    Format/Info : Audio Coding 3
    Mode extension : CM (complete main)
    Format settings, Endianness : Big
    Duration : 1h 36mn
    Bit rate mode : Constant
    Bit rate : 192 Kbps
    Channel(s) : 2 channels
    Channel positions : Front: L R
    Sampling rate : 48.0 KHz
    Bit depth : 16 bits
    Compression mode : Lossy
    Stream size : 133 MiB (100%)

    Fonte: DVD
    FPS: 29.970

    Áudio + Legendas idx/sub + Capítulos




    A Batalha por Endor - 1985
    Audio

    Format : AC-3
    Format/Info : Audio Coding 3
    Mode extension : CM (complete main)
    Format settings, Endianness : Big
    Duration : 1h 36mn
    Bit rate mode : Constant
    Bit rate : 192 Kbps
    Channel(s) : 2 channels
    Channel positions : Front: L R
    Sampling rate : 48.0 KHz
    Bit depth : 16 bits
    Compression mode : Lossy
    Stream size : 133 MiB (100%)

    Fonte: DVD
    FPS: 29.970

    Áudio + Legendas idx/sub + Capítulos
     
  12. Fairoxx

    Fairoxx Usuário

    4.990 5.223 701

    Desde 9 Mar 2009
    Brasil
    Eu tava com problemas pra subir áudios pro MEGA esses últimos, mas com a dica do Riddick pra instalar a extensão do do MEGA resolveu o problema.
     
  13. ktn

    ktn Usuário


    Desde 13 Ago 2013
    brasil
    Pois é, aqui só diminui os problemas, estou tentando subir o áudio de Resident Evil 2 há dois dias, tanto no 4shared quanto no MEGA, os dois ficam com velocidade lenta e reiniciam mas nunca terminam.
     
  14. Fairoxx

    Fairoxx Usuário

    4.990 5.223 701

    Desde 9 Mar 2009
    Brasil
    Fera, obrigado pelos áudios, mas na hora de postar as capinhas, poste imagens menores, dos sites que já indicamos.
    Assim a postagem fica mais limpa, e o carregamento das paginas são mais rápidos. (y)

    A Disney podia aproveitar a onda dessa nova trilogia de filmes do Star Wars e lançar também os BDs desses dois filmes. :-/

    [​IMG] [​IMG]
     
  15. LoneWolf

    LoneWolf Lobisomem


    Desde 1 Dez 2013
    Londres
    Realmente, muito conteúdo que eu ainda pretendo baixar está upado no Filesflash há mais de 2 anos. To pensando em comprar uma conta premium dele pra fazer os downloads...mas me diga, por que é ruim pra baixar? Não alcança velocidade nem com Premium?
     
  16. Druid

    Druid Usuário


    Desde 23 Jan 2005
    Curitiba/PR/Brasil

    Pessoal lê antes de agradecer o post, eu estou SOLICITANDO ESTE AUDIO, NÃO DISPONIBILIZANDO O UPLOAD
    (y).

    Druid®.
     
  17. Fairoxx

    Fairoxx Usuário

    4.990 5.223 701

    Desde 9 Mar 2009
    Brasil
  18. LoneWolf

    LoneWolf Lobisomem


    Desde 1 Dez 2013
    Londres
    Falando em HDs, só a pouco tempo descobri que a Seagate fabrica os HDs que a Samsung distribui.
     
  19. Fairoxx

    Fairoxx Usuário

    4.990 5.223 701

    Desde 9 Mar 2009
    Brasil
    Sim, a Seagate comprou a divisão de HDs da Samsung.
     
  20. Anonymous171

    Anonymous171 Usuário


    Desde 8 Abr 2012
    Tocantins-Brasil
    Pessoal, pra quem está com dificuldades de upload nos servers, eu recomendo utilizar o File & Image Uploader, que é um aplicativo universal para upload de Imagens e Arquivos e tem suporte a vários servidores, inclusive o MEGA e 4Shared. No fórum do desenvolvedor ainda é possível a solicitação para adicionar servidores que ele ainda não suporta. É um aplicativo portátil, e vc não perde suas configurações.
     
  1. Usamos cookies próprios e de terceiros para dar um melhor serviço e mostrar publicidade. Ao continuar, aceita o seu uso.
    Fechar Aviso