Anúncio do HT Forum

Tópico Inativo.

Discussão em 'HTPCs, Media Centers e Streamers' iniciada por Fairoxx, 21 Ago 2014.

  1. val-happy

    val-happy Usuário

    937 4.306 508

    Desde 17 Jan 2007
    São Joaquim da Barra/SP/Brasil
    Fairoxx:

    Por que ainda não apareceram os áudios que eu upei na tabela??
     
  2. timartinelli

    timartinelli Usuário

    1.118 1.175 601

    Desde 23 Jun 2009
    Indaiatuba/SP/Brasil
    Bom dia!

    Sobre o Lost amigos, eu tinha visto que estava Off e estou baixando todos os DVD-R para ripar novamente para gente, porem os áudios BD não tenho.

    Alguém vai reupar os áudios ou posso deixar o Download ativo?(está em 25% do BJ)


    Mike & Molly - 1ª Temporada
    [​IMG]
    Áudio
    Formato : AC-3
    Formato/Informações : Audio Coding 3
    Perfil do Formato : Dolby Digital
    Format_Settings_ModeExtension : CM (complete main)
    Conf do Formato, Endianness : Big
    Duração : 21mn 36s
    Modo da taxa de bits : Constante
    Taxa de bits : 192 Kbps
    Nº de canais : 2 canais
    Posições dos canais : Front: L R
    Taxa de amostragem : 48.0 KHz
    BitDepth/String : 16 bits
    Tamanho da Faixa : 29.7 MiB (100%)

    Fonte: DVD
    FPS: 29.970

    Áudio + Legendas idx/sub + Capítulos
     
  3. rafa_mordor

    rafa_mordor Usuário


    Desde 13 Mai 2011
    Gaspar / Santa Catarina
    Estou com a 1 temporada ripada já, só falta subir os áudios.
     
  4. rafa.lopes

    rafa.lopes Usuário


    Desde 24 Mai 2010
    Porto Alegre/RS
    Bullitt (1968)

    [​IMG]


    Audio
    Format: AC-3
    Format/Info: Audio Coding 3
    Mode extension: CM (complete main)
    Format settings, Endianness: Big
    Duration: 1h 53mn
    Bit rate mode: Constant
    Bit rate: 192 Kbps
    Channel(s): 1 channel
    Channel positions: Front: C
    Sampling rate: 48.0 KHz
    Bit depth: 16 bits
    Compression mode: Lossy
    Stream size: 156 MiB (100%)

    Legenda:IDX/SUB

    Áudio + Legendas idx/sub + Capítulos
     
  5. FishFB

    FishFB Usuário

    713 1.962 321

    Desde 15 Set 2011
    Curitiba
    Os Caça-Fantasmas 2 (1989) Ghostbusters II

    [​IMG]

    Áudio
    Formato : AC-3
    Duração : 1h 48mn
    Taxa de bits : 192 Kbps
    Nº de canais : 2 canais
    Tamanho da Faixa : 149 MiB (100%)
    Taxa de quadros: 23.976

    24 8ª Temporada

    [​IMG]

    Áudio
    Formato : AC-3
    Taxa de bits : 448 Kbps
    Nº de canais : 6 canais
    Taxa de quadros: 23.976

    Obs.: 38 Áudios extraídos, mas 24 episódios. ???

    Áudio, .sup e capítulos.
     
  6. val-happy

    val-happy Usuário

    937 4.306 508

    Desde 17 Jan 2007
    São Joaquim da Barra/SP/Brasil
    Filmes:

    O Padrasto (The Stepfather - 2009)

    [​IMG]

    Audio
    Format : AC-3
    Format/Info : Audio Coding 3
    Mode extension : CM (complete main)
    Format settings, Endianness : Big
    Duration : 1h 42mn
    Bit rate mode : Constant
    Bit rate : 448 Kbps
    Channel(s) : 6 channels
    Channel positions : Front: L C R, Side: L R, LFE
    Sampling rate : 48.0 KHz
    Bit depth : 16 bits
    Compression mode : Lossy
    Stream size : 327 MiB (100%)


    Fonte: DVD
    FPS: 29.970

    Áudio + Legendas idx/sub + Capítulos


    -------------------------------------------------------------------------------------------

    Valente (The Brave One - 2007)


    [​IMG]

    Audio
    Format : AC-3
    Format/Info : Audio Coding 3
    Mode extension : CM (complete main)
    Format settings, Endianness : Big
    Duration : 2h 2mn
    Bit rate mode : Constant
    Bit rate : 384 Kbps
    Channel(s) : 6 channels
    Channel positions : Front: L C R, Side: L R, LFE
    Sampling rate : 48.0 KHz
    Bit depth : 16 bits
    Compression mode : Lossy
    Stream size : 336 MiB (100%)


    Fonte: DVD
    FPS: 29.970

    Áudio + Legendas idx/sub + Capítulos
     
  7. LoneWolf

    LoneWolf Lobisomem


    Desde 1 Dez 2013
    Londres
    Verdade, meu último áudio postado também não ta aparecendo. Parece que tabela parou de atualizar a partir da postagem do áudio Versos de Um Crime.
     
  8. val-happy

    val-happy Usuário

    937 4.306 508

    Desde 17 Jan 2007
    São Joaquim da Barra/SP/Brasil
    É isso mesmo!! O que será que está acontecendo para não haver essa atualização??
     
  9. caio.matrix

    caio.matrix Cinéfilo e colecionador


    Desde 2 Jan 2010
    Campina Grande, PB
    As temporadas avulsas tem opções pt-br em países diferentes. É um martírio.
     
  10. olevita

    olevita Usuário


    Desde 29 Dez 2011
    Boa Vista - RR


    kkkkkk... :rofl::rofl::rofl:
     
  11. Fairoxx

    Fairoxx Usuário

    4.990 5.223 701

    Desde 9 Mar 2009
    Brasil
    Fiz com que as postagens parassem de aparecer automaticamente, agora eu tenho que liberar as postagens, assim evita que algum engraçadinha fique zoando a tabela.

    - - - Atualizado - - -

    Sem palavras Fish, mega postagem!

    - - - Atualizado - - -

    Bem que podíamos fazer uma vaquinha pra comprar esses BDs ai do cara, eu to numa pindaíba danada, mas ao menos com uns R$ 10,00 reais eu ajudaria. Dez pessoas contribuindo com R$ 10,00 cada somaria a quantia necessária.
    Eu não faço questão de ter os BDs, meu interesse é nos áudios+sup, mas pra galera que se interessar poderia haver um sorteio, e o negociador ficar com alguma das duas temporadas, sei l-a, é apenas uma ideia.
     
  12. rafa_mordor

    rafa_mordor Usuário


    Desde 13 Mai 2011
    Gaspar / Santa Catarina
    Putz Fairoxx, ótima ideia, eu ajudo no quer for preciso também (y), volto a frisar oque eu disse anteriormente, essa série é especial para muita gente, marcou época e sem dúvidas foi uma das maiores produções para a TV, ter ele em HD e ainda por cima dual é oque há. Dificilmente iremos encontrar as duas primeiras temporadas por 100 mangos novamente, agora é a hora de pegar esses BDs tão raros.

    - - - Atualizado - - -

    Exatamente :concordo:.

    - - - Atualizado - - -

    Aproveitando o embalo das séries, olhem oque o BJC postou ontem no Youtube, é ou não é para ficar babando nesse box?
     
    Última edição por um moderador: 19 Out 2014
  13. ktn

    ktn Usuário


    Desde 13 Ago 2013
    brasil
    Pois é, mas o preço desse box de Twin Peaks tá um exagero, 460 conto duas temporadas e um filme, uma pena porque é um box lindão pra caramba. Aquele de Breaking Bad em forma de barril é épico, mas nem veio para o Brasil, aquele comum vendido aqui está bem acessível considerando que tem 5/6 temporadas e custa bem menos que o de Twin Peaks com duas, esse acho que compro ano que vem para colecionar e também pegar as legendas SUP, mas nem comprei um leitor ainda.
     
  14. CactusMan

    CactusMan Usuário

    6 0 1

    Desde 15 Dez 2011
    Recife
    Fairox, estou tentando entrar em contato via MP mas não estou achando como. Aonde tem MP aqui nesse forum?

    Editado:
    Ok, vi que ainda não posso usar, mas posso receber MPs.

    Bom, a minha dúvida vale pra qualquer um que possa ajudar.

    Quero começar a upar alguns audios, mas estou preocupado com segurança. A turma que já vem upando esse tempo toda toma alguma medida de precaução do tipo usar Proxy ou ocultar IP? Quem quiser passar alguma dica que não possa por aqui, me passa pelo MP.
     
  15. Fairoxx

    Fairoxx Usuário

    4.990 5.223 701

    Desde 9 Mar 2009
    Brasil
    Com que tipo de segurança vc está preocupado? Com a PF batendo na porta da sua casa?
    Olha se for isso eu nem vou cair no mérito do que é ou não é pirataria, pq que isso daria "muito pano pra manga".
     
  16. CactusMan

    CactusMan Usuário

    6 0 1

    Desde 15 Dez 2011
    Recife
    Se for pra pesar, isso é o mais leve que poderia se ter na internet hoje em dia. É muito mais um lance cultural.
    Agora começa com o nome embaralhado dos arquivos da lista? Isso é uma medida de segurança contra o quê?
     
  17. timartinelli

    timartinelli Usuário

    1.118 1.175 601

    Desde 23 Jun 2009
    Indaiatuba/SP/Brasil
    Boa Noite!

    Eu ajudo tbm na vaquinha, quais temporadas tivemos em dublagem em Bluray do Lost? quem for comprar me avisa que transfiro pelo menos uns 10 ou 20 reais.
     
  18. caio.matrix

    caio.matrix Cinéfilo e colecionador


    Desde 2 Jan 2010
    Campina Grande, PB
    Esses dois ainda torço pra aparecer na Black Friday gringa, senão só daqui há uns anos mesmo. Ruim é que BD de série é difícil cair o preço, até mesmo lá fora. Só promoções ocasionais...
     
  19. Fairoxx

    Fairoxx Usuário

    4.990 5.223 701

    Desde 9 Mar 2009
    Brasil
    Contra os indexadores da web, para que eles não encontrem seu arquivo e delete.

    - - - Atualizado - - -

    Vc chegou a entrar em contato com o vendedor, viu se ele é de confiança? Outra pergunta Rafael, vc tem um BD Player de PC para poder extrair os áudios?
     
  20. Bibiu

    Bibiu Usuário

    320 2.890 118

    Desde 20 Mar 2014
    Fortaleza - CE
    Heróis Fora de Controle (Inseparable) 2011
    [​IMG]
    Audio
    Format : AC-3
    Format/Info : Audio Coding 3
    Mode extension : CM (complete main)
    Format settings, Endianness : Big
    Duration : 1h 36mn
    Bit rate mode : Constant
    Bit rate : 448 Kbps
    Channel(s) : 6 channels
    Channel positions : Front: L C R, Side: L R, LFE
    Sampling rate : 48.0 KHz
    Bit depth : 16 bits
    Compression mode : Lossy
    Stream size : 310 MiB (100%)
    FONTE: DVD
    LEGENDAS: IDX/SUB + CAPS.


    - - - Atualizado - - -

    Menina Má.Com (Hard Candy) 2005
    [​IMG]
    Audio
    Format : AC-3
    Format/Info : Audio Coding 3
    Mode extension : CM (complete main)
    Format settings, Endianness : Big
    Duration : 1h 44mn
    Bit rate mode : Constant
    Bit rate : 192 Kbps
    Channel(s) : 2 channels
    Channel positions : Front: L R
    Sampling rate : 48.0 KHz
    Bit depth : 16 bits
    Compression mode : Lossy
    Stream size : 143 MiB (100%)
    FONTE: DVD
    LEGENDAS: IDX/SUB + CAPS.
     
  1. Usamos cookies próprios e de terceiros para dar um melhor serviço e mostrar publicidade. Ao continuar, aceita o seu uso.
    Fechar Aviso