Anúncio do HT Forum

Tópico Inativo.

Discussão em 'HTPCs, Media Centers e Streamers' iniciada por Fairoxx, 21 Ago 2014.

  1. rafa_mordor

    rafa_mordor Usuário


    Desde 13 Mai 2011
    Gaspar / Santa Catarina
    Pessoal, off topic, olhem isso:

    O maior furacão da história do México está sendo aguardado na Costa Oeste do México. Com mais de 325 km/h, o Furacão, nomeado ‘Patricia’, causou estado de extrema atenção em toda a cidade do México, evacuando todos os moradores locais.

    [​IMG]

    Câmeras AO VIVO:





    Chega a arrepiar essas imagens :o, que Deus proteja esse povo :desculpe:.
     
    • 2
  2. djrickjk

    djrickjk Usuário

    355 1.260 343

    Desde 14 Nov 2013
    Santa Catarina
    [​IMG]

    De Volta Para o Futuro (1985)

    Audio
    Format : AC-3
    Format/Info : Audio Coding 3
    Mode extension : CM (complete main)
    Format settings, Endianness : Big
    Duration : 1h 55mn
    Bit rate mode : Constant
    Bit rate : 384 Kbps
    Channel(s) : 6 channels
    Channel positions : Front: L C R, Side: L R, LFE
    Sampling rate : 48.0 KHz
    Bit depth : 16 bits
    Compression mode : Lossy
    Stream size : 319 MiB (100%)

    Dublagem clássica BKS, remasterizada em 5.1 e sincronizada com BluRay por Don Costa.
    Na Tabela Secundária
     
    • 23
  3. Fairoxx

    Fairoxx Usuário

    4.990 5.223 701

    Desde 9 Mar 2009
    Brasil
    Espero que um desses nunca chegue aqui, como o Brasil não é um pais propenso a catástrofes naturais como furações, terremotos e tsunamis eu duvido que nosso governo tenha se planejado para caso isso ocorra aqui.

    Fiquei sabendo que em Portugal os filmes não são dublados, com exceção das animações para as crianças, se algum irmão(a) de Portugal puder confirmar isso pra gente.
    Mas se isso for realmente verdade creio eu que os filmes não são dublados por dois motivos, o 1º é mercadológico, Portugal é bem pequeno, muitos estados brasileiros são maiores que ele, o 2º motivo seria que os portugueses ao contrario de nós, já estão bem acostumados com o nosso sotaque (pt-br), e isso se da pela grande quantidade de brasileiros lá e também pela influência da novelas brasileiras que são transmitidas em Portugal, sendo assim penso eu que os portugueses conseguem vê um filme dublado em pt-br sem dificuldades.
     
    Última edição: 24 Out 2015
    • 2
  4. jaum_20

    jaum_20 Usuário


    Desde 2 Set 2012
    FSA, BA, BR
    O Serviço de Entregas da Kiki (Majo no takkyûbin) 1989

    [​IMG]

    Áudio
    Formato : AC-3
    Formato/Informações : Audio Coding 3
    Format_Settings_ModeExtension : CM (complete main)
    Conf do Formato, Endianness : Big
    Duração : 1h 43mn
    Modo da taxa de bits : Constante
    Taxa de bits : 192 Kbps
    Nº de canais : 2 canais
    Posições dos canais : Front: L R
    Taxa de amostragem : 48.0 KHz
    BitDepth/String : 16 bits
    Tamanho da Faixa : 142 MiB (100%)
    Legendas : idx/sub
    Fonte: DVD-R

    Na Tabela

     
    Última edição: 24 Out 2015
    • 22
  5. Fairoxx

    Fairoxx Usuário

    4.990 5.223 701

    Desde 9 Mar 2009
    Brasil
    Penny Dreadful - 1ª Temporada (2014)
    [​IMG]
    Format : AC-3
    Duration : 52mn 59s
    Bit rate mode : Constant
    Bit rate : 448 Kbps
    Channel(s) : 6 channels
    Channel positions : Front: L C R, Side: L R, LFE
    Sampling rate : 48.0 KHz
    Compression mode : Lossy
    Stream size : 1.38 GB
    Legendas: IDX/SUB
    Fonte: DVD
     
    • 17
  6. Barbalora

    Barbalora Usuário


    Desde 16 Mai 2006
    Belo Horizonte - MG
    Tb queria saber..
     
  7. 12riddickvgp12

    12riddickvgp12 Usuário

    877 1.425 923

    Desde 25 Fev 2012
    São Paulo
    Tabela Secundária
    [​IMG]

    Audio : Dragon Ball Z - Resurrection 'F'
    Format : AC-3
    Format/Info : Audio Coding 3
    Mode extension : CM (complete main)
    Format settings, Endianness : Big
    Duration : 1h 33mn
    Bit rate mode : Constant
    Bit rate : 384 Kbps
    Channel(s) : 6 channels
    Channel positions : Front: L C R, Side: L R, LFE
    Sampling rate : 48.0 KHz
    Compression mode : Lossy
    Stream size : 258 MiB (100%)


    Legenda SRT e menu de capítulos

    ****************************************************

    Galera peço desculpas pela ausência, pois estou trabalhando praticamente de segunda a sábado das 05:00 as 14:48 hrs e com uma net de 2MB não sobra tempo pra fazer muito
     
    Última edição: 24 Out 2015
    • 21
  8. jaum_20

    jaum_20 Usuário


    Desde 2 Set 2012
    FSA, BA, BR
    Porco Rosso: O Último Herói Romântico (Kurenai no buta) 1992

    [​IMG]

    Áudio
    Formato : AC-3
    Formato/Informações : Audio Coding 3
    Format_Settings_ModeExtension : CM (complete main)
    Conf do Formato, Endianness : Big
    Duração : 1h 33mn
    Modo da taxa de bits : Constante
    Taxa de bits : 192 Kbps
    Nº de canais : 2 canais
    Posições dos canais : Front: L R
    Taxa de amostragem : 48.0 KHz
    BitDepth/String : 16 bits
    Tamanho da Faixa : 128 MiB (100%)
    Legendas : idx/sub
    Fonte : DVD-R


    Amigo Fairoxx, ma minha postagem do áudio anterior esqueci de adicionar o nome original do filme na tabela, adicione-o, por favor.
    P.S. Mais uma coisa, amigo. Esses dois filmes também estão na tabela de editados, já pode removê-los de lá.
     
    Última edição: 24 Out 2015
    • 21
  9. Tonboy

    Tonboy Clube do Dual Áudio

    744 4.724 458

    Desde 8 Jan 2014
    MG
    Aguarde,estarei acrescentando daq alguns minutos(y)


    Será que teremos esse DVD nas locadoras?Ja perdi as contas de quantas vzs vi essa animação,outro clássico tambem é o Meu Amigo Totoro,na espectativa de um dia encontrar na net:assobio:

    Em breve vai rolar Duais por ai;),Parabens Jaum:feliz::uhu:
    ================================
    Divertida Mente (Inside Out) 2015


    [​IMG]

    Format : AC-3
    Format/Info : Audio Coding 3
    Mode extension : CM (complete main)
    Format settings, Endianness : Big
    Duration : 1h 34mn
    Bit rate mode : Constant
    Bit rate : 384 Kbps
    Channel(s) : 6 channels
    Channel positions : Front: L C R, Side: L R, LFE
    Sampling rate : 48.0 KHz
    Compression mode : Lossy
    Stream size : 260 MiB (100%)

    Fonte: Bluray Dual
    Fps: 23.976
    Tabela Secundária:):D:confuso::medo::irado:
     
    Última edição: 24 Out 2015
    • 24
  10. D.A.T

    D.A.T [Tv Box - IPTV á Nova Era da TV]

    1.838 1.128 321

    Desde 27 Ago 2012
    Guarulhos/SP
    Comparação de imagem da nova remasterização do filme esqueceram de mim 1990 que completa 25 anos.


    1.jpg


    2.jpg




    [​IMG]
     

    Anexos:

    • 2.jpg
      2.jpg
      Tamanho:
      271,5 KB
      Visitas:
      0
    • 2
  11. Spahlee

    Spahlee Usuário

    491 2.721 408

    Desde 21 Nov 2014
    Brasília
    O Grito (The Grudge) *Unrated* 2004
    c93bc6fd-045d-4d06-9403-2bdb5d8c3385_2_front.jpg
    Áudio
    Formato : AC-3
    Formato/Informações : Audio Coding 3
    Format_Settings_ModeExtension : CM (complete main)
    Conf do Formato, Endianness : Big
    Duração : 1h 38mn
    Modo da taxa de bits : Constante
    Taxa de bits : 192 Kbps
    Nº de canais : 2 canais
    Posições dos canais : Front: L R
    Taxa de amostragem : 48.0 KHz
    Tamanho da Faixa : 135 MiB (100%)

    Fonte: DVD
    FPS: 29.970
    Áudio + Legendas idx/sub + Capítulos

    Caso 39 (Case 39) 2009
    74c23bbf-41fe-40a4-befd-8315fbde155e_2_front.jpg
    Áudio
    Formato : AC-3
    Formato/Informações : Audio Coding 3
    Format_Settings_ModeExtension : CM (complete main)
    Conf do Formato, Endianness : Big
    Duração : 1h 49mn
    Modo da taxa de bits : Constante
    Taxa de bits : 448 Kbps
    Nº de canais : 6 canais
    Posições dos canais : Front: L C R, Side: L R, LFE
    Taxa de amostragem : 48.0 KHz
    Tamanho da Faixa : 351 MiB (100%)

    Fonte: DVD
    FPS: 29.970
    Áudio + Legendas idx/sub + Capítulos

    Minority Report - A Nova Lei 2002
    ca392064-8d99-4b7f-900b-22368d727196_2_front.jpg
    Áudio
    Formato : AC-3
    Formato/Informações : Audio Coding 3
    Perfil do Formato : Dolby Digital
    Format_Settings_ModeExtension : CM (complete main)
    Conf do Formato, Endianness : Big
    Duração : 2h 25mn
    Modo da taxa de bits : Constante
    Taxa de bits : 192 Kbps
    Nº de canais : 2 canais
    Posições dos canais : Front: L R
    Taxa de amostragem : 48.0 KHz
    Tamanho da Faixa : 199 MiB (100%)

    Fonte: DVD
    FPS: 29.970
    Áudio + Legendas idx/sub + Capítulos
     
    • 23
  12. 79marcio

    79marcio Usuário


    Desde 11 Jun 2010
    São Paulo | SP | Brasil
    Tenho alguns convites da filewarez, só para membros ativos e que ajudam no clube.

    Bom domingo a todos!
     
    • 2
  13. Nikki

    Nikki Usuário


    Desde 26 Abr 2014
    Menlo Park, CA
    Alguém assistiu Quarteto Fantástico vi uma galera falando não muito bem mas espero que me surpreenda, alias já saiu o BD com áudio PT \o/

    [​IMG]
     
  14. kalazans

    kalazans Usuário

    134 1.482 43

    Desde 2 Jan 2014
    Baltimore/Maryland
    Fora de Alacance (Beyond the Reach) 2015

    [​IMG]

    Format : AC-3
    Format/Info : Audio Coding 3
    Mode extension : CM (complete main)
    Format settings, Endianness : Big
    Codec ID : A_AC3
    Duration : 1h 31mn
    Bit rate mode : Constant
    Bit rate : 192 Kbps
    Channel(s) : 2 channels
    Channel positions : Front: L R
    Sampling rate : 48.0 KHz
    Compression mode : Lossy
    Stream size : 126 MiB (3%)

    Fonte: DVDR
    Legendas: IDX/SUB

    Sentimentos que Curam (Infinitely Polar Bear) 2015

    [​IMG]

    Format : AC-3
    Format/Info : Audio Coding 3
    Mode extension : CM (complete main)
    Format settings, Endianness : Big
    Duration : 1h 27mn
    Bit rate mode : Constant
    Bit rate : 448 Kbps
    Channel(s) : 6 channels
    Channel positions : Front: L C R, Side: L R, LFE
    Sampling rate : 48.0 KHz
    Compression mode : Lossy
    Stream size : 281 MiB (100%)

    Fonte: DVDR
    Legendas: IDX/SUB

    Férias Frustradas (Vacation) 2015

    [​IMG]

    Format : AC-3
    Format/Info : Audio Coding 3
    Mode extension : CM (complete main)
    Format settings, Endianness : Big
    Duration : 1h 39mn
    Bit rate mode : Constant
    Bit rate : 640 Kbps
    Channel(s) : 6 channels
    Channel positions : Front: L C R, Side: L R, LFE
    Sampling rate : 48.0 KHz
    Compression mode : Lossy
    Stream size : 453 MiB (100%)

    Fonte: BDR
    Legenda: .SUP

    A Amaldiçoada (The Damned/Gallows Hill) 2013

    [​IMG]

    Format : AC-3
    Format/Info : Audio Coding 3
    Mode extension : CM (complete main)
    Format settings, Endianness : Big
    Duration : 1h 27mn
    Bit rate mode : Constant
    Bit rate : 192 Kbps
    Channel(s) : 2 channels
    Channel positions : Front: L R
    Sampling rate : 48.0 KHz
    Compression mode : Lossy
    Stream size : 120 MiB (100%)

    Fonte: DVDR
    Legendas: IDX/SUB

    O Ataque dos Vermes Malditos 5: Linhas de Sangue (Tremors 5: Bloodlines) 2015

    [​IMG]

    Format : AC-3
    Format/Info : Audio Coding 3
    Mode extension : CM (complete main)
    Format settings, Endianness : Big
    Duration : 1h 38mn
    Bit rate mode : Constant
    Bit rate : 384 Kbps
    Channel(s) : 6 channels
    Channel positions : Front: L C R, Side: L R, LFE
    Sampling rate : 48.0 KHz
    Compression mode : Lossy
    Stream size : 271 MiB (100%)

    Fonte: DVDR
    Legendas: IDX/SUB


    Samba 2015

    [​IMG]

    Format : AC-3
    Format/Info : Audio Coding 3
    Mode extension : CM (complete main)
    Format settings, Endianness : Big
    Duration : 1h 58mn
    Bit rate mode : Constant
    Bit rate : 384 Kbps
    Channel(s) : 6 channels
    Channel positions : Front: L C R, Side: L R, LFE
    Sampling rate : 48.0 KHz
    Compression mode : Lossy
    Stream size : 325 MiB (100%)

    Fonte: DVDR
    Legendas: ISX/SUB

    Assassino Profissional (U-neun nam-ja/No Tears for the Dead) 2015

    [​IMG]
    Format : AC-3
    Format/Info : Audio Coding 3
    Mode extension : CM (complete main)
    Format settings, Endianness : Big
    Duration : 1h 56mn
    Bit rate mode : Constant
    Bit rate : 448 Kbps
    Channel(s) : 2 channels
    Channel positions : Front: L R
    Sampling rate : 48.0 KHz
    Compression mode : Lossy
    Stream size : 372 MiB (100%)

    Fonte: DVDR
    Legendas: IDX/SUB
     
    Última edição: 25 Out 2015
    • 20
  15. olevita

    olevita Usuário


    Desde 29 Dez 2011
    Boa Vista - RR
    Olá pessoal do forum. Passei pra perguntar se alguém tem o audio do filme Jogos Vorazes (The Hunger Games), pois os 2 links na tabela de audios originais estão off. No aguardo por qualquer ajuda.

    Abraços.

    "Que a força esteja com vocês"
     
  16. Tonboy

    Tonboy Clube do Dual Áudio

    744 4.724 458

    Desde 8 Jan 2014
    MG
    Louca Escapada (The Sugarland Express) 1974

    [​IMG]

    Format : DTS
    Format/Info : Digital Theater Systems
    Mode : 16
    Format settings, Endianness : Big
    Duration : 1h 49mn
    Bit rate mode : Constant
    Bit rate : 447 Kbps
    Channel(s) : 2 channels
    Channel positions : Front: L R
    Sampling rate : 48.0 KHz
    Bit depth : 24 bits
    Compression mode : Lossy
    Stream size : 351 MiB
    =======================================
    1941: Uma Guerra Muito Louca (1941) 1979

    [​IMG]

    Format : DTS
    Format/Info : Digital Theater Systems
    Mode : 16
    Format settings, Endianness : Big
    Duration : 1h 58mn
    Bit rate mode : Constant
    Bit rate : 768 Kbps
    Channel(s) : 6 channels
    Channel positions : Front: L C R, Side: L R, LFE
    Sampling rate : 48.0 KHz
    Bit depth : 24 bits
    Compression mode : Lossy
    Stream size : 654 MiB (100%)
    =====================================
    Férias Frustradas (Vacation) 2015

    [​IMG]

    Format : AC-3
    Format/Info : Audio Coding 3
    Mode extension : CM (complete main)
    Format settings, Endianness : Big
    Duration : 1h 39mn
    Bit rate mode : Constant
    Bit rate : 640 Kbps
    Channel(s) : 6 channels
    Channel positions : Front: L C R, Side: L R, LFE
    Sampling rate : 48.0 KHz
    Compression mode : Lossy
    Stream size : 453 MiB (100%)

    Fonte: Bluray
    FPS: 23.976

    Áudio + Legendas Sup + Capítulo(y)
     
    • 20
  17. 79marcio

    79marcio Usuário


    Desde 11 Jun 2010
    São Paulo | SP | Brasil
    Olha vou dizer por mim... fraquíssimo... se não for o pior filme de heróis. Lanterna Verde é melhor kkkk
     
  18. 12riddickvgp12

    12riddickvgp12 Usuário

    877 1.425 923

    Desde 25 Fev 2012
    São Paulo
    eita
     
  19. djrickjk

    djrickjk Usuário

    355 1.260 343

    Desde 14 Nov 2013
    Santa Catarina
    Quarteto Fantástico é tão ruim, que Mulher Gato consegue ser melhor.
     
    • 1
  20. Druid

    Druid Usuário


    Desde 23 Jan 2005
    Curitiba/PR/Brasil
    Sabem, WHAT'S FUCKER a direção deste filme mudar os atores e por atores mais jovens, nada haver, se não tem verba para os atores que fizeram o sucesso da duologia então nem tivessem produzido isso, e olha que mulher está muito acima para merecer está comparação :confuso:o_O.

    Druid.
     
  1. Usamos cookies próprios e de terceiros para dar um melhor serviço e mostrar publicidade. Ao continuar, aceita o seu uso.
    Fechar Aviso