Anúncio do HT Forum

Tópico Inativo.

Discussão em 'HTPCs, Media Centers e Streamers' iniciada por Fairoxx, 21 Ago 2014.

  1. R2S

    R2S Usuário

    1.164 6.592 138

    Desde 5 Mar 2016
    Rio de Janeiro
    Pessoal, gostaria de lembrar a vocês que esses áudios WEB-Rip
    como a própria nomeclatura já diz, foram extraídos da internet
    não chegam a ser áudios assim como os do Netflix mas dá para
    quebrar o galho legal, mesmo assim estou postando os que eu acho
    ter boa qualidade...
    Esses áudios passaram aqui pelo meu home de boa, espero agradem a vocês...
    VALEU!!!
     
    • 1
  2. Druid

    Druid Usuário


    Desde 23 Jan 2005
    Curitiba/PR/Brasil
    Bibiu você encontrou a FONTE DOS BD NACIONAIS ou esta alugando estes BD meu amigo :aplauso::);)(y)?

    Druid®.
     
    • 1
  3. Druid

    Druid Usuário


    Desde 23 Jan 2005
    Curitiba/PR/Brasil
    Só verifique a tabela principal para ver se não tem o mesmo áudio melhor nela, pois como o Fairoxx mesmo falou, quando é encontrado um áudio melhor que o da tabela secundária e colocado na principal (primária) o mesmo é apagado da tabela secundária, logo o contrário também é válido, nenhum áudio deve ser colocado na tabela secundária se já existe melhor na principal (primária) (y).

    Druid®.
     
    • 1
  4. Beavis361

    Beavis361 Usuário

    495 4.102 408

    Desde 21 Jan 2014
    Manaus/Amazonas /Brasil
    Fantasmas a Solta: Minha Namorada Fantasma (Mostly Ghostly: Have You Met My Ghoulfriend?) 2014
    mostly-ghostly-have-you-met-my-ghoulfriend_tNone_jpg_210x312_crop_upscale_q90.jpg

    Audio
    Format: DTS
    Format/Info: Digital Theater Systems
    Mode: 16
    Format settings, Endianness : Big
    Duration: 1h 30mn
    Bit rate mode : Constant
    Bit rate: 768 Kbps
    Channel(s): 6 channels
    Channel positions: Front: L C R, Side: L R, LFE
    Sampling rate: 48.0 KHz
    Bit depth: 24 bits
    Compression mode: Lossy
    Stream size: 497 MiB

    Legenda: Sup + capitulos
    Fonte:Blu-ray
     
    Última edição: 4 Nov 2016
    • 16
  5. R2S

    R2S Usuário

    1.164 6.592 138

    Desde 5 Mar 2016
    Rio de Janeiro
    Alguém poderia tirar minhas dúvidas?
    The Big Bang theory primeira temporada existe a dublagem na integra
    ou somente cortada como no SBT, por exemplo tem no Netflix a dublagem
    inteira? Quero usar os mkv da primeira temporada mais ou menos 42Gb,
    tô sabendo que a versão em DVD é somente inglês, alguém sabe?
     
  6. R2S

    R2S Usuário

    1.164 6.592 138

    Desde 5 Mar 2016
    Rio de Janeiro
    Druid para falar a verdade não sábia dessa regra, obrigado pelo aviso,
    mas esses áudios que postei ainda sim são os que e mais procuro na
    inter fora A Maldição de Samantha, e sei que não estão na lista (y).
     
    • 1
  7. Fairoxx

    Fairoxx Usuário

    4.990 5.223 701

    Desde 9 Mar 2009
    Brasil
    A 1ª temporada dessa série não ganhou dublagem no DVD/BD, até onde tenho conhecimento somente o SBT dublou essa 1ª temporada.
     
    Última edição: 30 Mar 2016
    • 2
  8. R2S

    R2S Usuário

    1.164 6.592 138

    Desde 5 Mar 2016
    Rio de Janeiro
    Altas Loucuras (Puff, Puff, Pass) 2006

    download.jpg
    Áudio
    Formato : AC-3
    Formato : Audio Coding 3
    Mode Extension : CM (complete main)
    Conf do Formato, Endianness : Big
    Duração : 1h 34mn
    Modo da taxa de bits : Constante
    Taxa de bits : 448 Kbps
    Nº de canais : 6 canais
    Posições dos canais : Front: L C R, Side: L R, LFE
    Taxa de amostragem : 48.0 KHz
    Taxa de quadros : 31.250 fps (1536 spf)
    Tamanho da Faixa : 303 MiB (100%)
    IDX/SUB
    23.976fps.
     
    • 14
  9. Sam Winchester

    Sam Winchester Usuário


    Desde 20 Mai 2009
    Carandaí/MG/Brasil
    O áudio "Poder sem Limites (Chronicle) *Versão Estendida*" está sem link, alguém poderia fazer um repost? Vlw!
     
  10. Crispim Silva

    Crispim Silva Usuário


    Desde 5 Jan 2014
    Fortaleza-CE
    oi alguem teria o audio portugues do documentario imax under the sea?
     
  11. louisrogers

    louisrogers Usuário

    21 56 1

    Desde 28 Jun 2015
    Parana
    [​IMG]

    RAD - A fera do BMX (1986)

    Alguém tem a legenda desse filme em Português, eu baixei uma em espanhol traduzi no google ficou muito meia boca,
    Alguém sabe me dizer se esse filme foi lançado no Brasil dublado, a trilha sonora e bem legal !!!



     
    • 2
  12. rafa_mordor

    rafa_mordor Usuário


    Desde 13 Mai 2011
    Gaspar / Santa Catarina
    Saiu hoje em WEB-DL :aplauso::o:):

    [​IMG]
     
    • 2
  13. Beavis361

    Beavis361 Usuário

    495 4.102 408

    Desde 21 Jan 2014
    Manaus/Amazonas /Brasil
    O Ataque dos Vermes Malditos 5: Linhas de Sangue (Tremors 5: Bloodlines) 2015
    tremors-5-bloodline_tNone_jpg_210x312_crop_upscale_q90.jpg
    Audio
    Format: DTS
    Format/Info: Digital Theater Systems
    Mode: 16
    Format settings, Endianness : Big
    Duration: 1h 38mn
    Bit rate mode: Constant
    Bit rate: 768 Kbps
    Channel(s): 6 channels
    Channel positions: Front: L C R, Side: L R, LFE
    Sampling rate: 48.0 KHz
    Bit depth: 24 bits
    Compression mode: Lossy
    Stream size: 543 MiB (100%)

    Legenda: Sup + capitulos
    Fonte:Blu-ray
     
    • 13
  14. surt

    surt Usuário

    105 194 25

    Desde 30 Out 2012
    Pernambuco
    Nossa, o Bluray de Batman VS Superman já saiu (y), pena que não vem com áudio PT-BR. Aguardem por releases monstruosos pois ele está com grain para dar e vender.
    Disc Title: BATMAN V SUPERMAN
    Disc Size: 45,146,916,584 bytes
    Protection: AACS
    BD-Java: No
    Extras: Blu-ray 3D
    BDInfo: 0.5.8

    PLAYLIST REPORT:

    Name: 00098.MPLS
    Length: 3:00:27.994 (h:m:s.ms)
    Size: 44,830,451,840 bytes
    Total Bitrate: 67.18 Mbps

    VIDEO:

    Codec Bitrate Description
    ----- ------- -----------
    MPEG-4 AVC Video 29823 kbps 1080p / 23.976 fps / 16:9 / High Profile 4.1
    MPEG-4 MVC Video 13860 kbps

    AUDIO:

    Codec Language Bitrate Description
    ----- -------- ------- -----------
    Dolby TrueHD Audio English 5262 kbps 7.1 / 48 kHz / 5262 kbps / 24-bit (AC3 Embedded: 5.1-EX / 48 kHz / 640 kbps / DN -4dB)
    Dolby Digital Audio Chinese 640 kbps 5.1 / 48 kHz / 640 kbps / DN -4dB
    Dolby Digital Audio Czech 640 kbps 5.1 / 48 kHz / 640 kbps / DN -4dB
    Dolby Digital Audio Korean 640 kbps 5.1 / 48 kHz / 640 kbps / DN -4dB
    Dolby Digital Audio Spanish 640 kbps 5.1 / 48 kHz / 640 kbps / DN -4dB
    Dolby Digital Audio Chinese 640 kbps 5.1 / 48 kHz / 640 kbps / DN -4dB
    Dolby Digital Audio Polish 640 kbps 5.1 / 48 kHz / 640 kbps / DN -4dB
    Dolby Digital Audio Thai 640 kbps 5.1 / 48 kHz / 640 kbps / DN -4dB
    Dolby Digital Audio Vietnamese 640 kbps 5.1 / 48 kHz / 640 kbps / DN -4dB

    SUBTITLES:

    Codec Language Bitrate Description
    ----- -------- ------- -----------
    Presentation Graphics English 46.192 kbps
    Presentation Graphics Chinese 14.605 kbps
    Presentation Graphics Czech 18.580 kbps
    Presentation Graphics Korean 13.286 kbps
    Presentation Graphics Spanish 19.696 kbps
    Presentation Graphics Chinese 17.063 kbps
    Presentation Graphics Polish 19.184 kbps
    Presentation Graphics Thai 17.430 kbps
    Presentation Graphics Vietnamese 36.650 kbps
    Presentation Graphics Chinese 15.170 kbps
    Presentation Graphics Portuguese 0.680 kbps
    Presentation Graphics Chinese 0.568 kbps
    Presentation Graphics Czech 0.719 kbps
    Presentation Graphics Korean 0.718 kbps
    Presentation Graphics Spanish 1.011 kbps
    Presentation Graphics Chinese 0.675 kbps
    Presentation Graphics Polish 0.791 kbps
    Presentation Graphics Thai 0.663 kbps
    Presentation Graphics Chinese 0.590 kbps
    [​IMG]
    [​IMG]
    [​IMG]
    [​IMG]
    [​IMG]
    [​IMG]
    [​IMG]
     
    Última edição: 31 Mar 2016
    • 6
  15. Tonboy

    Tonboy Clube do Dual Áudio

    744 4.724 458

    Desde 8 Jan 2014
    MG
    O Regresso (The Revenant) 2016

    [​IMG]

    Formato : AC-3
    Formato/Informações : Audio Coding 3
    Format_Settings_ModeExtension : CM (complete main)
    Conf do Formato, Endianness : Big
    Duração : 2h 36mn
    Modo da taxa de bits : Constante
    Taxa de bits : 384 Kbps
    Nº de canais : 6 canais
    Posições dos canais : Front: L C R, Side: L R, LFE
    Taxa de amostragem : 48.0 KHz
    Tamanho da Faixa : 429 MiB (100%)

    Fonte: DVDR
    FPS: 29.970

    Áudio + Legenda Idx/Sub + Capítulo(y)
     
    Última edição: 31 Mar 2016
    • 16
  16. rafa_mordor

    rafa_mordor Usuário


    Desde 13 Mai 2011
    Gaspar / Santa Catarina
    Cara, como assim já saiu? Não pode ser verdade isso, o filme estreou semana passada :o.
     
  17. jaum_20

    jaum_20 Usuário


    Desde 2 Set 2012
    FSA, BA, BR
    essa do Bd de Batman vs Superman so pode ser 1o de Abril antecipado...
    :)
     
  18. Druid

    Druid Usuário


    Desde 23 Jan 2005
    Curitiba/PR/Brasil
    Hauhahau só pode mesmo, mas o que é isso, como assim Batman x Superman, pensei que era charge da web? Aliás com o Superman nem tem para o Batman, o Bruce Wayne não porr@ nenhuma de superpoderes, ou ele tem criptonita nas mangas :rofl::rofl::rofl::rofl::rofl::rofl::rofl:.

    Druid®.
     
  19. ZMG

    ZMG Usuário

    3 38 1

    Desde 27 Mar 2016
    Diadema
    Star Wars - O Despertar da Força (Star Wars: Episode VII - The Force Awakens) 2015

    [​IMG]

    Format: AC-3
    Format/Info: Audio Coding 3
    Mode extension: CM (complete main)
    Format settings, Endianness: Big
    Duration: 2h 18mn
    Bit rate mode: Constant
    Bit rate: 384 Kbps
    Channel(s): 6 channels
    Channel positions: Front: L C R, Side: L R, LFE
    Sampling rate: 48.0 KHz
    Frame rate: 31.250 fps (1536 spf)
    Compression mode: Lossy
    Stream size: 380 MiB (100%)

    Fonte: iTunes
    Sincronizado em qualquer BluRay / BRRip lançado até a data de hoje pois só possui uma source por enquanto.
     
    • 21
  20. 12riddickvgp12

    12riddickvgp12 Usuário

    877 1.425 923

    Desde 25 Fev 2012
    São Paulo
    s
    sinal que o filme é fraco
     
  1. Usamos cookies próprios e de terceiros para dar um melhor serviço e mostrar publicidade. Ao continuar, aceita o seu uso.
    Fechar Aviso