Tópico Inativo.

Discussão em 'HTPCs, Media Centers e Streamers' iniciada por Fairoxx, 21 Ago 2014.

  1. fernandolopes

    fernandolopes Usuário


    Desde 25 Nov 2012
    Minas Gerais
    O link do áudio de "Contatos Imediatos de Terceiro Grau (Close Encounters of the Third Kind)" que está na tabela primária expirou... :choro:
     
  2. niltoncrf

    niltoncrf Usuário

    7.955 4.439 606

    Desde 22 Out 2010
    ***
    O soc 912, ainda nao esta sendo usado pelo raspberry/Odroid. Se uma delas começar a usar, pegaria uma. Esse acima o desenvolvedor tem suporte para o libreelec (kodi) e para o android 7.
    Em casa tenho uma raspberry Pi2, Odroid C2, e um Box Bellink, O odroid possui soc s905, e o box soc s905x, ambos rodam os 4k 10bit normalmente, eo box posso fazer um dual boot com android e libreelec.
    Penso um comprar um 912, mas sendo um box (pela praticidade do dual boot), sendo que o android box, teria coisas extras, como saida optica, wifi 2.4/5Ghz, uma caixinha elegante, sendo até mais barato que esse do link acima.
    Esse do link abaixo penso em comprar:

    https://pt.aliexpress.com/item/Beel...G-Amlogic-S912-Octa-Core-4K/32798870060.html?

    Mas existem outras opções, que usam android TV, que se for assinante da NF, terá ela em HD, no caso o menor/melhor custo beneficio seria um Mi Box 3, ponto negativo do equipamemento, é ter apenas 8Gigas de Rom e não ter entrada rj45.

    Existem muitas opções no mercado, e algo que você pode ter o 'tudo em um", sem dúvidas é a Odroid C2, nela tenho:
    Kodi como centro de midia e seus beneficios:
    Organizar biblioteca de filmes/seriados:
    Poder baxar automaticamente filmes/seriados/legendas assim que disponivel, chego em casa ja no ponto do play.
    Acesso via no-ip, aqui uso esse acesso para o transmission e o gerenciador de filmes/series.

    Então, so isso ja me serve bastante e um android tv, teria certo limites de uso.
     
    • 1
  3. ZORAX

    ZORAX Usuário


    Desde 28 Abr 2009
    São Miguel do Oeste - SC
    Só para comunicar, a dublagem para o filme Meu Malvado Favorito 2 (Despicable Me 2) postada pelo Tonboy está em PT-PT, algum moderador poderia corrigir na tabela?
     
    • 2
  4. DJBrunoLima

    DJBrunoLima Usuário

    388 3.101 368

    Desde 29 Set 2012
    Rio de Janeiro
    Uma Escola Muito Doida (High School High) 1996

    highschoolhigh1996.jpg

    Audio
    Format : AC-3
    Format/Info : Audio Coding 3
    Format settings, Endianness : Big
    Duration : 1 h 25 min
    Bit rate mode : Constant
    Bit rate : 192 kb/s
    Channel(s) : 2 channels
    Channel positions : Front: L R
    Sampling rate : 48.0 kHz
    Bit depth : 16 bits
    Compression mode : Lossy
    Stream size : 117 MiB (100%)

    Fonte: MAX UP HD.
    UMA_ESCOLA_MUITO_DOIDA_1996_HDPVR2_2017_9_9_0_42_33.ts_thumbs.jpg
     
    Última edição: 9 Set 2017
    • 25
  5. HiTS

    HiTS Usuário

    167 1.218 43

    Desde 23 Dez 2014
    Brasília
    Penso exatamente da mesma forma, brother. Esse preço ali é absurdo! Claro que é uma relíquia, e o foco do vendedor é negociar com colecionar e etc. Quem trata isso como um hobby pode achar que esse valor é normal. Afinal, não posso falar como colecionador, pois não sou. No entanto, na minha opinião, até R$ 100 reais só pelo áudio e legendas seria um exagero.

    Lembrnado que isso é a minha opinião. Assim como o camarada comentou, respeito a opinião dos demais. Pois quando o assunto é hobby, o que você gastar acabará sendo prazeroso.
     
    • 1
  6. luke72

    luke72 Usuário

    56 29 12

    Desde 7 Set 2006
    Cruz Alta/RS/Brasil
    Pessoal, o link do áudio do filme "Onde Está Segunda?" está dando erro. Teria como consertar? Obrigado.
     
  7. HiTS

    HiTS Usuário

    167 1.218 43

    Desde 23 Dez 2014
    Brasília
    Querida, Estiquei o Bebê (Honey I Blew Up the Kid) *Dublagem Herbert Richers* [1992]

    [​IMG]

    Audio
    Format : E-AC-3
    Format/Info : Enhanced Audio Coding 3
    Format settings, Endianness : Big
    Codec ID : ec-3
    Duration : 1 h 29 min
    Bit rate mode : Constant
    Bit rate : 128 kb/s
    Channel(s) : 2 channels
    Channel positions : Front: L R
    Sampling rate : 48.0 kHz
    Frame rate : 187.500 FPS (256 SPF)
    Bit depth : 16 bits
    Compression mode : Lossy
    Stream size : 81.9 MiB (97%)
    Service kind : Complete Main

    Netflix

    A Incrível História de Adaline (The Age of Adaline) [2015]

    [​IMG]

    Audio
    Format : AC-3
    Format/Info : Audio Coding 3
    Format settings, Endianness : Big
    Duration : 1 h 52 min
    Bit rate mode : Constant
    Bit rate : 384 kb/s
    Channel(s) : 6 channels
    Channel positions : Front: L C R, Side: L R, LFE
    Sampling rate : 48.0 kHz
    Frame rate : 31.250 FPS (1536 SPF)
    Bit depth : 16 bits
    Compression mode : Lossy
    Stream size : 310 MiB (100%)
    Service kind : Complete Main

    Netflix
     
    Última edição: 9 Set 2017
    • 25
  8. Beavis361

    Beavis361 Usuário

    495 4.103 408

    Desde 21 Jan 2014
    Manaus/Amazonas /Brasil
    [​IMG]

    Redublagem - ESTÚDIO: Cinevídeo
    "Edição do diretor"
     
    Última edição: 9 Set 2017
    • 24
  9. filipesiq

    filipesiq Usuário

    1.619 2.845 856

    Desde 21 Nov 2007
    Brasília
    Ótima resposta, camarada. Valeu! Depois vou enviar uma MP pra ti para informar o que pretendo fazer. :aplauso:(y)
     
  10. 336126

    336126 Usuário


    Desde 1 Jun 2017
    Triangulo Mineiro
  11. djrickjk

    djrickjk Usuário

    355 1.260 343

    Desde 14 Nov 2013
    Santa Catarina
    Amigos, alguém poderia me ajudar a tirar proteção Cinavia de áudios AC3?

    Meu BluRay Player é da Sony e trava aos 20 minutos de execução quando tem essa proteção.

    Tentei com o programa CinEx HD mas ele corrompe todo o áudio.
    Tentei também abrir no Audacity e exportar em AC3, continua com a proteção.
     
  12. Alvo_Errado2

    Alvo_Errado2 Usuário

    659 1.108 753

    Desde 4 Out 2008
    Brasil
    Alguém consegue me dizer se essa série está disponível para aluguel e seu preço:

    Código:
    https://www.oiplay.tv/1026358540000-os-camundongos-aventureiros
    Pois meu plano não dá acesso a isso, então não tenho como comprovar se está ou não disponível, ou é apenas mais uma página morta da OI só de enfeite.
     
  13. DJBrunoLima

    DJBrunoLima Usuário

    388 3.101 368

    Desde 29 Set 2012
    Rio de Janeiro
  14. niltoncrf

    niltoncrf Usuário

    7.955 4.439 606

    Desde 22 Out 2010
    ***
    Tentei aqui sabendo que não iria acessar. Vi rumores que a Oi ia liberar a OI Play apenas novos assinante, na hora que ela fizer isso vou na anatel, pois todos os assinantes devem ter as mesma condições de acordo com o pacote.
     
  15. filipesiq

    filipesiq Usuário

    1.619 2.845 856

    Desde 21 Nov 2007
    Brasília
    Gerei o boleto, mas não vou conseguir pagar. Por favor, se alguém tiver como fazer isso, não perca essa oportunidade. Pedi a um amigo meu para pagar o boleto, mas o rapaz está sem dinheiro. Eu não queria perder essa, mas infelizmente não deu pra mim. Minha intenção era comprar, extrair o áudio e revender em seguida.
     
    • 2
  16. niltoncrf

    niltoncrf Usuário

    7.955 4.439 606

    Desde 22 Out 2010
    ***
    Deixa ele baixar mais o valor...
     
  17. filipesiq

    filipesiq Usuário

    1.619 2.845 856

    Desde 21 Nov 2007
    Brasília
    Então, não sei se ele vai baixar mais. Um cara ofereceu 400,00 e ele não aceitou. Se eu tivesse a grana, pagaria e poria fim à nossa espera.
     
  18. Banksy

    Banksy Clube Dual: a saga continua...

    391 1.080 93

    Desde 22 Abr 2011
    Faixa de Gaza
    Qual a diferença da dublagem dos duais disponíveis no MS e BJ o do Bluray que está a venda no ML?
     
  19. filipesiq

    filipesiq Usuário

    1.619 2.845 856

    Desde 21 Nov 2007
    Brasília
    Esse BD é mitológico. A Sony lançou um BD desse filme que foi muito criticado, no mundo todo, por causa da imagem ruim, por ser um bluray. Depois, remasterizam, para consertar a cagada. Acontece que os colecionadores estavam evitando comprar os discos com a imagem ruim, até porque eram os primeiros e o preço era bem elevado. A Sony relançou o bluray do filme somente com legendas. O único lugar do mundo onde esse BD foi lançado com dublagem foi aqui. A remasterização ganhou legendas em nosso idioma em outros cantos do mundo, como os EUA, por exemplo. Mas, a dublagem virou lenda. Até mesmo não acreditávamos que existisse, até que alguém nos mostrou, aqui mesmo no fórum, que foi lançado com dublagem. Acredito que foram bem poucas unidades, era o comecinho do bluray, tem uns 10 ou 11 anos, eu acho. Eu mesmo cheguei a ver o maledito anunciado e fugi dele. :choro: Mas nem tinha ideia que aquele era dublado e que seria o único no planeta com dublagem. Aí, a única maneira de encontrar é em algum ML da vida, com preços estratosféricos, já que os detentores dessa raridade sabem o quanto um disco desses é cobiçado.
     
    • 5
  20. HiTS

    HiTS Usuário

    167 1.218 43

    Desde 23 Dez 2014
    Brasília
    How I Met Your Mother - S03 até S09 [2007-2013]

    [​IMG]

    Audio
    Format : AC-3
    Format/Info : Audio Coding 3
    Format settings, Endianness : Big
    Duration : 21 min 13 s
    Bit rate mode : Constant
    Bit rate : 384 kb/s
    Channel(s) : 6 channels
    Channel positions : Front: L C R, Side: L R, LFE
    Sampling rate : 48.0 kHz
    Frame rate : 31.250 FPS (1536 SPF)
    Bit depth : 16 bits
    Compression mode : Lossy
    Stream size : 58.3 MiB (100%)
    Service kind : Complete Main

    Netflix
     
    Última edição: 9 Set 2017
    • 22
  1. Usamos cookies próprios e de terceiros para dar um melhor serviço e mostrar publicidade. Ao continuar, aceita o seu uso.
    Fechar Aviso