[Tutorial] Como Obter e Sincronizar Audio Dublado Para Vídeos

Discussão em 'HTPCs, Media Centers e Streamers' iniciada por Jin Kazama VGH, 5 Nov 2008.

  1. brunosbr

    brunosbr Usuário


    Desde 25 Fev 2009
    São Paulo
    [​IMG]
    Guerra dos Mundos 2005


    Audio:extraido do dvd

    Format : DTS
    Format/Info : Digital Theater Systems
    Duration : 1h 56mn
    Bit rate mode : Constant
    Bit rate : 755 Kbps
    Channel(s) : 6 channels
    Channel positions : Front: L C R, Side: L R, LFE
    Sampling rate : 48.0 KHz
    Bit depth : 24 bits
    Compression mode : Lossy
    Stream size : 629 MiB

    http://www.megaupload.com/?d=AZ33S1X9
    ou pasta
    http://www.megaupload.com/?f=W0U6GHYE

    Abraços!
     


    Anúncio do HT Forum
  2. Druid

    Druid Usuário Muito Ativo


    Desde 23 Jan 2005
    Curitiba/PR/Brasil
    Pesssoal resolvi arregaçar as mangas, a exemplo de um amigo de outro tópico (WDTV Live), e criar um FAQ evitando assim muitas perguntas do noob's (y).

    Espero ter sido fiel a tudo que foi postado aqui, e se precisar alguma alteração aceito sugestões, alguém precisa avisar o autor do tópico para ver se ele consegue colocar o mesmo na primeira página.

    Parte 1

    Legendas utilizados aqui nesta mensagem de ajuda do tópico:


    botões usa-se entre <>, exemplo: <enter>


    Onde encontrar a maioria dos programas freeware citados nos tuto com versões atuais e anteriores:

    www.videohelp.com


    Audios no 4Shared (Infelizmente alguns em MP3)

    http://www.4shared.com/dir/5439800/e10f23d0/sharing.html
    http://www.4shared.com/dir/VsxbY1NC/sharing.html
    http://www.4shared.com/dir/5cG1n7iZ/sharing.html


    Tutoriais e FAQ e Afins


    Extraindo audio com Virtual Dub Mod - http://www.htforum.com/vb/showthrea...-Para-Vídeos?p=1400179&viewfull=1#post1400179


    Sincronizando com o MPC - Media Player Classic - http://www.htforum.com/vb/showthrea...-Para-Vídeos?p=1403989&viewfull=1#post1403989


    Quando o audio não sincroniza no MPC com <+> e/ou <->: http://www.htforum.com/vb/showthrea...-Para-Vídeos?p=1445658&viewfull=1#post1445658


    Como montar Capítulos e inserir no MKV: http://www.htforum.com/vb/showthrea...-Para-Vídeos?p=1460286&viewfull=1#post1460286


    Para eu sincronizar o audio com arquivos que não se sincronizam automaticamente faça o seguinte: http://www.htforum.com/vb/showthrea...-Para-Vídeos?p=1460723&viewfull=1#post1460723


    Acertando o audio pelo "stretch by" do MKVMerge: http://www.htforum.com/vb/showthrea...-Para-Vídeos?p=1511943&viewfull=1#post1511943

    MKVMerge e fps de vídeo: http://www.htforum.com/vb/showthrea...-Para-Vídeos?p=1713556&viewfull=1#post1713556 e http://www.htforum.com/vb/showthrea...-Para-Vídeos?p=1729408&viewfull=1#post1729408


    Sobre Workshop Subtitle 2.51 (sincronia de legendas e visualizar vídeo) e como inserir legendas em arquivos VOB: http://www.htforum.com/vb/showthrea...-Para-Vídeos?p=1945426&viewfull=1#post1945426


    Tutorial e Vídeos para masterizar e editar audio no SONY Vegas: http://www.htforum.com/vb/showthrea...-Para-Vídeos?p=2180006&viewfull=1#post2180006


    Algumas dicas para que vai sincronizar audios (usando EAC3TO modo command prompt): http://www.htforum.com/vb/showthrea...-Para-Vídeos?p=2406437&viewfull=1#post2406437
    http://www.htforum.com/vb/showthrea...-Para-Vídeos?p=2522492&viewfull=1#post2522492


    Usando o Elastique TimeStrech do SoundForge: http://www.htforum.com/vb/showthrea...-Para-Vídeos?p=2417738&viewfull=1#post2417738


    Limitações do Plugin Elastique TimeStretch do SoundForge: http://www.htforum.com/vb/showthrea...-Para-Vídeos?p=2420578&viewfull=1#post2420578


    Tutorial alteração de FPS de Áudio: http://www.htforum.com/vb/showthrea...-Para-Vídeos?p=2419850&viewfull=1#post2419850


    Acoustica Premium 4.1 e TimeStretch: http://www.htforum.com/vb/showthrea...-Para-Vídeos?p=2431061&viewfull=1#post2431061


    Link para o Imageshack para Upar imagens no forum: http://www.htforum.com/vb/showthrea...-Para-Vídeos?p=2432047&viewfull=1#post2432047


    Ajuste de FPS de audio com o AC3machine: http://www.htforum.com/vb/showthrea...-Para-Vídeos?p=2432098&viewfull=1#post2432098


    Extraindo audios de DVD com o DVD Audio Extractor: http://www.htforum.com/vb/showthrea...-Para-Vídeos?p=2433263&viewfull=1#post2433263
    http://www.htforum.com/vb/showthrea...-Para-Vídeos?p=2545930&viewfull=1#post2545930


    Mais um link de um vídeo de como extrair audio de DVD: http://www.htforum.com/vb/showthrea...-Para-Vídeos?p=2433629&viewfull=1#post2433629


    Observação importante sobre vídeos 29.970 (NTSC pull down) e o fps correto do audio: http://www.htforum.com/vb/showthrea...-Para-Vídeos?p=2469112&viewfull=1#post2469112


    Problemas com audio e vídeo que não tocam: desinstale todos os codecs e instale o K-Lite Codec Pack (A versão full vem como o Media Player Classic): http://www.codecguide.com/download_k-lite_codec_pack_full.htm
    http://www.htforum.com/vb/showthrea...-Para-Vídeos?p=2492779&viewfull=1#post2492779

    Druid®
     
    dumpa e Luy agradeceram.
  3. Druid

    Druid Usuário Muito Ativo


    Desde 23 Jan 2005
    Curitiba/PR/Brasil
    Parte 2

    Sobre o MKVMerge versão 4.1.x e os problemas de MKV sem audio na reprodução: http://www.htforum.com/vb/showthread.php/85798-Tutorial-Como-Obter-e-Sincronizar-Audio-Dublado-Para-Vídeos?p=2493055&viewfull=1#post2493055
    http://www.htforum.com/vb/showthread.php/85798-Tutorial-Como-Obter-e-Sincronizar-Audio-Dublado-Para-Vídeos?p=2821628&viewfull=1#post2821628

    Convertendo audio DTS para AC3: http://www.htforum.com/vb/showthread.php/85798-Tutorial-Como-Obter-e-Sincronizar-Audio-Dublado-Para-Vídeos?p=2541538&viewfull=1#post2541538

    Várias Vídeos Aulas do amigo Fairoxx sobre sincronização de audio e tudo que esta relacionada sincronização: http://www.htforum.com/vb/showthread.php/85798-Tutorial-Como-Obter-e-Sincronizar-Audio-Dublado-Para-Vídeos?p=2608164&viewfull=1#post2608164

    Sobre fps em uma conversão caso não saiba a origem: http://www.htforum.com/vb/showthread.php/85798-Tutorial-Como-Obter-e-Sincronizar-Audio-Dublado-Para-Vídeos?p=2612908&viewfull=1#post2612908

    Editando audio e tirando o ruido (hiss, chiado de fita): http://www.htforum.com/vb/showthread.php/85798-Tutorial-Como-Obter-e-Sincronizar-Audio-Dublado-Para-Vídeos?p=2615784&viewfull=1#post2615784
    http://www.htforum.com/vb/showthread.php/85798-Tutorial-Como-Obter-e-Sincronizar-Audio-Dublado-Para-Vídeos?p=2616098&viewfull=1#post2616098

    Capítulos genéricos para editar e colocar num MKV: http://www.htforum.com/vb/showthread.php/85798-Tutorial-Como-Obter-e-Sincronizar-Audio-Dublado-Para-Vídeos?p=2655125&viewfull=1#post2655125

    Usando o AC3 Delay Cut para adiantar ou atrasar um audio para sincronia, sem reencoder do audio (Use sempre este programas em seus audios extraidos para verificar também problemas de CRC): http://www.htforum.com/vb/showthread.php/85798-Tutorial-Como-Obter-e-Sincronizar-Audio-Dublado-Para-Vídeos?p=2675764&viewfull=1#post2675764

    Vídeo de como usa o Media Player Classic: http://www.htforum.com/vb/showthread.php/85798-Tutorial-Como-Obter-e-Sincronizar-Audio-Dublado-Para-Vídeos?p=2719940&viewfull=1#post2719940

    Vídeo como usar o Mega Manager para UPAR audios para o MEGAUPLOAD, que além de se rápido tem resuming de downloads para contas FREE: http://www.htforum.com/vb/showthread.php/85798-Tutorial-Como-Obter-e-Sincronizar-Audio-Dublado-Para-Vídeos?p=2723575&viewfull=1#post2723575

    Vídeo Tutorial - Como Importar Audio AC3 no Sony Vegas / Vegas Movie Studio: http://www.htforum.com/vb/showthread.php/85798-Tutorial-Como-Obter-e-Sincronizar-Audio-Dublado-Para-Vídeos?p=2724780&viewfull=1#post2724780

    Sincronizando audio de filme PAL com audio de filme NTSC com o EAC3TO: http://www.htforum.com/vb/showthread.php/85798-Tutorial-Como-Obter-e-Sincronizar-Audio-Dublado-Para-Vídeos?p=2760614&viewfull=1#post2760614

    Como retirar audio de um container de transporte TS, MTS, M2TS: http://www.htforum.com/vb/showthread.php/85798-Tutorial-Como-Obter-e-Sincronizar-Audio-Dublado-Para-Vídeos?p=2793651&viewfull=1#post2793651

    Video tutorial básico ensinado a extrair áudio de BD: http://www.htforum.com/vb/showthread.php/85798-Tutorial-Como-Obter-e-Sincronizar-Audio-Dublado-Para-Vídeos?p=2814247&viewfull=1#post2814247
    http://www.htforum.com/vb/showthread.php/85798-Tutorial-Como-Obter-e-Sincronizar-Audio-Dublado-Para-Vídeos?p=2814323&viewfull=1#post2814323

    Extraindo o DTS de um audio DTS HD com EAC3TO: http://www.htforum.com/vb/showthread.php/85798-Tutorial-Como-Obter-e-Sincronizar-Audio-Dublado-Para-Vídeos?p=2815363&viewfull=1#post2815363

    Link do programa para extrair audios, vídeo de MKV: http://www.htforum.com/vb/showthread.php/85798-Tutorial-Como-Obter-e-Sincronizar-Audio-Dublado-Para-Vídeos?p=2822186&viewfull=1#post2822186

    Mudando nomes de audios UPADOS no MEGAUPLOAD: http://www.htforum.com/vb/showthread.php/85798-Tutorial-Como-Obter-e-Sincronizar-Audio-Dublado-Para-Vídeos?p=2842701&viewfull=1#post2842701

    Como extrair legenda de DVD (cuidado legenda de DVD é BMP ou seja todo software que extrai tem que fazer OCR - Optical Character Recognition isso gera erros que é preciso corrigir em tempo real; da um pulinho no http://legendas.tv/ pode ser que sua legenda em SRT esteja lá): http://www.htforum.com/vb/showthread.php/85798-Tutorial-Como-Obter-e-Sincronizar-Audio-Dublado-Para-Vídeos?p=2844719&viewfull=1#post2844719
    http://www.htforum.com/vb/showthread.php/85798-Tutorial-Como-Obter-e-Sincronizar-Audio-Dublado-Para-Vídeos?p=2844761&viewfull=1#post2844761
    http://www.htforum.com/vb/showthread.php/85798-Tutorial-Como-Obter-e-Sincronizar-Audio-Dublado-Para-Vídeos?p=2845548&viewfull=1#post2845548

    Baixei um filme codificado em x264 porem esta em um container m2ts, tem como adiconar audio em pt neste arquivo?:
    http://www.htforum.com/vb/showthread.php/85798-Tutorial-Como-Obter-e-Sincronizar-Audio-Dublado-Para-Vídeos?p=2848747&viewfull=1#post2848747


    Druid®
     
    dumpa, Luy e Jorpaes agradeceram.
  4. Druid

    Druid Usuário Muito Ativo


    Desde 23 Jan 2005
    Curitiba/PR/Brasil
    Parte 3

    Como extrair tudo de um Blu-ray com HDDVD-BD-Remuxer: http://www.htforum.com/vb/showthread.php/85798-Tutorial-Como-Obter-e-Sincronizar-Audio-Dublado-Para-Vídeos?p=2852205&viewfull=1#post2852205
    http://www.htforum.com/vb/showthread.php/85798-Tutorial-Como-Obter-e-Sincronizar-Audio-Dublado-Para-Vídeos?p=2853234&viewfull=1#post2853234

    Duas vídeos aulas de como sincronizar audio e conversão de DTS para AC3: http://www.htforum.com/vb/showthread.php/85798-Tutorial-Como-Obter-e-Sincronizar-Audio-Dublado-Para-Vídeos?p=2878036&viewfull=1#post2878036

    Como juntar dois audios ou mais com o EAC3TO: http://www.htforum.com/vb/showthread.php/85798-Tutorial-Como-Obter-e-Sincronizar-Audio-Dublado-Para-Vídeos?p=2880556&viewfull=1#post2880556
    http://www.htforum.com/vb/showthread.php/85798-Tutorial-Como-Obter-e-Sincronizar-Audio-Dublado-Para-Vídeos?p=2884666&viewfull=1#post2884666

    Cortando parte de audio sem perdas nem reencoder com AC3 DelayCut: http://www.htforum.com/vb/showthread.php/85798-Tutorial-Como-Obter-e-Sincronizar-Audio-Dublado-Para-Vídeos?p=2881674&viewfull=1#post2881674

    Uma GUI para o EAC3TO: http://www.htforum.com/vb/showthread.php/85798-Tutorial-Como-Obter-e-Sincronizar-Audio-Dublado-Para-Vídeos?p=2887034&viewfull=1#post2887034

    Usando o SONY VEGAS para sincronizar audio AC3 5.1: http://www.htforum.com/vb/showthread.php/85798-Tutorial-Como-Obter-e-Sincronizar-Audio-Dublado-Para-Vídeos?p=2889926&viewfull=1#post2889926

    Upando para o MEGAUPLOAD: http://www.htforum.com/vb/showthread.php/85798-Tutorial-Como-Obter-e-Sincronizar-Audio-Dublado-Para-Vídeos?p=2926699&viewfull=1#post2926699

    Extraindo audio de DVD com DVD Audio Extractor sem reencodar: http://www.htforum.com/vb/showthread.php/85798-Tutorial-Como-Obter-e-Sincronizar-Audio-Dublado-Para-Vídeos?p=2931689&viewfull=1#post2931689

    Sincronização dos 2 audios do Senhor dos Anéis Versão Extendida da "Sociedade do Anel": http://www.htforum.com/vb/showthread.php/85798-Tutorial-Como-Obter-e-Sincronizar-Audio-Dublado-Para-Vídeos?p=2888153&viewfull=1#post2888153

    Sincronização dos 2 audios do Senhor dos Anéis Versão Extendida da "As Duas Torres": http://www.htforum.com/vb/showthread.php/85798-Tutorial-Como-Obter-e-Sincronizar-Audio-Dublado-Para-Vídeos?p=2934606&viewfull=1#post2934606

    Sincronização dos 2 audios do Senhor dos Anéis Versão Extendida da "O Retorno do Rei": http://www.htforum.com/vb/showthread.php/85798-Tutorial-Como-Obter-e-Sincronizar-Audio-Dublado-Para-Vídeos?p=2935404&viewfull=1#post2935404

    Sincronização dos 2 audios do O Senhor dos Anéis Trilogia versão Estendida BLU-RAY RIP distribuição Wiki e HiDt: http://www.htforum.com/vb/showthrea...-Para-Vídeos?p=3343358&viewfull=1#post3343358

    Inserindo audio em AVI com Delay (VirtualDubMOD): http://www.htforum.com/vb/showthrea...-Para-Vídeos?p=3415253&viewfull=1#post3415253

    Como inserir/cortar um tempo em décimos, centésimos, ou milésimos de segundo ou mais no meio de um audio AC3: http://www.htforum.com/vb/showthrea...-Para-Vídeos?p=3420451&viewfull=1#post3420451

    Porque distribuições HD e audios de DVD-Rom nacionais com a mesma duração não sincronizam: http://www.htforum.com/vb/showthrea...-Para-Vídeos?p=3505411&viewfull=1#post3505411

    Video Aula Usando o SupRip by Fairoxx (The Rock): http://www.htforum.com/vb/showthrea...-Para-Vídeos?p=3612006&viewfull=1#post3612006

    Sincronizando Audio com precisão: http://www.htforum.com/vb/showthrea...-Para-Vídeos?p=3633167&viewfull=1#post3633167

    Editando áudio com precisão usando os comandos -loop, silence e inserção/corte inicial no audio: http://www.htforum.com/vb/showthrea...-Para-Vídeos?p=5730784&viewfull=1#post5730784
    http://www.htforum.com/vb/showthrea...-Para-Vídeos?p=5731321&viewfull=1#post5731321


    Druid®
     
    dumpa, Luy, Tonboy e 2 outros agradeceram.
  5. ayrton_2510

    ayrton_2510 Usuário Muito Ativo


    Desde 26 Jul 2010
    Maceió/Alagoas/Brasil
    Pow Druid, ótimo trabalho. Conseguiu tirar algumas dúvidas que eu ainda tinha!!
     
  6. Druid

    Druid Usuário Muito Ativo


    Desde 23 Jan 2005
    Curitiba/PR/Brasil
    Amigo Ayrton fico feliz que minha aventura tenha sido proveitosa para vc e espero que para muitos que frequentam aqui este tópico do HTForum, foram mais de 8 horas para compilar este FAQ, mas estavamos precisando não?

    Druid®
     
  7. ayrton_2510

    ayrton_2510 Usuário Muito Ativo


    Desde 26 Jul 2010
    Maceió/Alagoas/Brasil
    Espartalhões

    [​IMG]

    Format: AC-3
    Mode extension: CM (complete main)
    Duration: 1h 26mn
    Bit rate mode: Constant
    Bit rate: 384 Kbps
    Channel(s): 6 channels
    Channel positions: Front: L C R, Side: L R, LFE
    Sampling rate: 48.0 KHz
    Bit depth: 16 bits
    Stream size: 237 Mb

    DOWNLOAD: http://www.megaupload.com/?d=JY97QBBX (senha: htforum)

    ------------------------------------------------------------------------------------------------------------------------------------

    Letra e Música

    [​IMG]

    Format: AC-3
    Mode extension: CM (complete main)
    Duration: 1h 44mn
    Bit rate mode: Constant
    Bit rate: 384 Kbps
    Channel(s): 6 channels
    Channel positions: Front: L C R, Side: L R, LFE
    Sampling rate: 48.0 KHz
    Bit depth: 16 bits
    Stream size: 286 Mb

    DOWNLOAD: http://www.megaupload.com/?d=YDPJLU3P (senha: htforum)

    ------------------------------------------------------------------------------------------------------------------------------------

    Super Heróis - A Liga da Injustiça

    [​IMG]

    Format: AC-3
    Mode extension: CM (complete main)
    Duration: 1h 27mn
    Bit rate mode: Constant
    Bit rate: 448 Kbps
    Channel(s): 6 channels
    Channel positions: Front: L C R, Side: L R, LFE
    Sampling rate: 48.0 KHz
    Bit depth: 16 bits
    Stream size: 279 Mb

    DOWNLOAD: http://www.megaupload.com/?d=X2320M8Y (senha: htforum)

    ------------------------------------------------------------------------------------------------------------------------------------

    Treze Homens e Um Novo Segredo

    [​IMG]

    Format: AC-3
    Mode extension: CM (complete main)
    Duration: 2h 2mn
    Bit rate mode: Constant
    Bit rate: 384 Kbps
    Channel(s): 6 channels
    Channel positions: Front: L C R, Side: L R, LFE
    Sampling rate: 48.0 KHz
    Bit depth: 16 bits
    Stream size: 335 Mb

    DOWNLOAD: http://www.megaupload.com/?d=WLUPN1PY (senha: htforum)

    Druid, vi que vc pediu o áudio dessa trilogia, mas não ripei o áudio dos outros dois filmes por que o DVD estava com problemas.
     
  8. Lucascalk

    Lucascalk Usuário


    Desde 15 Dez 2010
    MG - Brasil
    O Código Da Vinci (The Da Vinci Code 2006)

    [​IMG]

    Info

    Formato : AC-3
    Duração : 2h 54mn
    Modo da taxa de bits : Constante
    Taxa de bits : 384 Kbps
    Nº de canais : 6 canais
    Posições dos canais : Front: L C R, Side: L R, LFE
    Taxa de amostragem : 48.0 KHz
    BitDepth/String : 16 bits
    Tamanho da Faixa : 480 MiB (100%)


    Dowload Megaupload

    Dowload Fileserve



    [​IMG] parabéns druid , Ótimo trabalho.
     
  9. ayrton_2510

    ayrton_2510 Usuário Muito Ativo


    Desde 26 Jul 2010
    Maceió/Alagoas/Brasil
    13 Homens e Um Novo Segredo: Link Postado!!
     
  10. Druid

    Druid Usuário Muito Ativo


    Desde 23 Jan 2005
    Curitiba/PR/Brasil


    Ehehheh legal o GIF o que é OMG e ONOZ?

    Obrigado amigo pelo audio (y).

    Druid®

    ---------- Mensagem adicionada às 12:00 ---------- Mensagem anterior foi enviada às 11:58 ----------

    Obrigado amigo pelo audio, estou a tempos a procura, pena que deu zica nos outros, é nessa hora que vemos que a qualidade dos DVD-R que gravamos é importante não :concordo:?

    Druid®
     
  11. Lucascalk

    Lucascalk Usuário


    Desde 15 Dez 2010
    MG - Brasil
    OMG - oh My good - oh meu deus

    ONOZ - Nem eu sei
     
  12. brunosbr

    brunosbr Usuário


    Desde 25 Fev 2009
    São Paulo
    [​IMG]
    O Resgate do Soldado Ryan
    Audio
    Format : AC-3
    Format/Info : Audio Coding 3
    Format profile : Dolby Digital
    Mode extension : CM (complete main)
    Duration : 2h 48mn
    Bit rate mode : Constant
    Bit rate : 192 Kbps
    Channel(s) : 2 channels
    Channel positions : Front: L R
    Sampling rate : 48.0 KHz
    Bit depth : 16 bits
    Compression mode : Lossy
    Stream size : 232 MiB (100%)

    http://www.megaupload.com/?d=8D1HJXN7

    ou pasta

    http://www.megaupload.com/?f=W0U6GHYE

    Abraços!
     
  13. pincano

    pincano Usuário

    6 0 1

    Desde 4 Jan 2009
    sao gonçalo/rj/brasil
    Boa tarde pessoal. Alguém tem o audio do filme De Volta Para o Futuro II e o III?
    Vlw. Abraço.
     
  14. brunosbr

    brunosbr Usuário


    Desde 25 Fev 2009
    São Paulo
    [​IMG]
    Terror na Antártida
    Audio
    Format : AC-3
    Format/Info : Audio Coding 3
    Mode extension : CM (complete main)
    Duration : 1h 40mn
    Bit rate mode : Constant
    Bit rate : 384 Kbps
    Channel(s) : 6 channels
    Channel positions : Front: L C R, Side: L R, LFE
    Sampling rate : 48.0 KHz
    Bit depth : 16 bits
    Compression mode : Lossy
    Stream size : 277 MiB (100%)
    http://www.megaupload.com/?d=3ROQJT72
    ou pasta
    http://www.megaupload.com/?f=W0U6GHYE

    Abraços!!
     
  15. Denito

    Denito Usuário

    4 0 0

    Desde 1 Jan 2011
    Dublin, Irlanda
    Fala ae pessoal.
    Muito bom esse tópico! Consegui fazer alguns já! Eu particularmente gosto muito das dublagens brasileiras em geral. Claro q as vezes eles zoam o barraco (colocar o Luciano Huck para dublar o principe no novo filme da Rapunzel foi sacanagem) =P.
    Obrigado a todos que disponibilizam, quem teve a ideia, aos que organizam e compartilham (conhecimentos e audios).

    Gostaria de pedir, a quem tiver, o audio do filme Carros, da Pixar. Vi que tem a pasta, mas está vazia, e dei uma busca, muita gente fala "Eu posso uppar" mas até agora nada... =P
    Então, por favor! =)

    Abraço.
     
  16. niltoncrf

    niltoncrf Usuário Muito Ativo

    5.631 3.006 113

    Desde 22 Out 2010
    ***
    Blade Runner Archival Versions



    [​IMG]


    PARA FAZER DOWNLOAD CLIQUE NA IMAGEM


    Nome completo : Blade Runner 1982 DC 1992
    Formato : AC-3
    Formato/Informações : Audio Coding 3
    Tamanho do arquivo : 162 MiB
    Duração : 1h 57mn 25s & 1H 57mn 37s
    Taxa de Bits Total : 192 Kbps

    Áudio
    Formato : AC-3
    Formato/Informações : Audio Coding 3
    Format_Settings_ModeExtension : CM (complete main)
    Duração : 1h 57mn
    Modo da taxa de bits : Constante
    Taxa de bits : 192 Kbps
    Nº de canais : 2 canais
    Posições dos canais : Front: L R
    Taxa de amostragem : 48.0 KHz
     
    Tonboy agradeceu.
  17. brunosbr

    brunosbr Usuário


    Desde 25 Fev 2009
    São Paulo
    [​IMG]

    Yes man 2008

    Audio
    Format : AC-3
    Format/Info : Audio Coding 3
    Mode extension : CM (complete main)
    Duration : 1h 44mn
    Bit rate mode : Constant
    Bit rate : 640 Kbps
    Channel(s) : 6 channels
    Channel positions : Front: L C R, Side: L R, LFE
    Sampling rate : 48.0 KHz
    Bit depth : 16 bits
    Compression mode : Lossy
    Stream size : 478 MiB (100%)

    http://www.megaupload.com/?d=SWVZ6UZU

    ou pasta

    http://www.megaupload.com/?f=W0U6GHYE

    Abraços!!
     
  18. brunosbr

    brunosbr Usuário


    Desde 25 Fev 2009
    São Paulo
    [​IMG]

    A verdade nua e crua 2009

    Audio
    Format : AC-3
    Format/Info : Audio Coding 3
    Mode extension : CM (complete main)
    Duration : 1h 35mn
    Bit rate mode : Constant
    Bit rate : 448 Kbps
    Channel(s) : 6 channels
    Channel positions : Front: L C R, Side: L R, LFE
    Sampling rate : 48.0 KHz
    Bit depth : 16 bits
    Compression mode : Lossy
    Stream size : 307 MiB (100%)

    http://www.megaupload.com/?d=TK80UXAW

    ou pasta

    http://www.megaupload.com/?f=W0U6GHYE

    Abraços!!
     
    Tonboy agradeceu.
  19. ayrton_2510

    ayrton_2510 Usuário Muito Ativo


    Desde 26 Jul 2010
    Maceió/Alagoas/Brasil
    Tabela de Áudios Atualizada

    Até hoje, 24/01/2011, 14:35, 141 áudios catalogados.

    Tabela de Áudios | Parte 1: http://bit.ly/e2hpEy

    Tabela de Áudios | Parte 2: http://bit.ly/fCl96I

    Se alguém souber as informações que ainda faltam, ou se algum áudio não estiver na lista, se puder informar, agradeço.
     
  20. caio.matrix

    caio.matrix Cinéfilo e colecionador


    Desde 2 Jan 2010
    Campina Grande, PB
    Eu fico uma semana fora e vocês em deixam 200 páginas atrasados. xD aushauhsahusu

    ayrton, excelente trabalho com a lista! Vai ajudar e muito a vida do pessoal que procura pra baixar e para os que tão pensando em upar.
    Minha dica é que colasse no Google Docs, assim toda a lista estaria em um único lugar, e sempre atualizado. :)
    Ah, no final do doc, podia ter um banco de pedidos, que acha?

    Druid, valeu MUITO por reunir as páginas! Assim fica bem mais fácil ir direto às coisas que tenho dúvida. (y)


    P.S.: ONOZ é "oh noes" ou "essa não!" :p