Anúncio do HT Forum

[Tutorial] Como Obter e Sincronizar Audio Dublado Para Vídeos

Discussão em 'HTPCs, Media Centers e Streamers' iniciada por Jin Kazama VGH, 5 Nov 2008.

  1. Olddog

    Olddog Usuário


    Desde 5 Ago 2013
    Brasil
    Segundo melhor HDtracker da atualidade aberto não se pode perder em galera! Quem não tem corre la (y)
     
  2. mitanidani

    mitanidani Eu uso seedbox OVH


    Desde 29 Mai 2007
    Japão
    Fairrox parabéns pelo UP sou fan dessa serie tentei importar esse audio para minha conta mas só aparece a opção download, a pergunta é como faço isso.
     
  3. Fairoxx

    Fairoxx Usuário

    4.990 5.223 701

    Desde 9 Mar 2009
    Brasil
    O MEGA não permiti que outra pessoa importe arquivos que estejam dentro de diretórios (pasta), sendo assim, vc precisa me passar o seu e-mail usado pra criar a conta no MEGA, pra mim adicionar na minha conta como contato, assim eu consigo exportar esses áudios pra sua conta.

    PS. Se vc for me passar o e-mail, me passe por MP.


    Importei pra minha conta, pois é um áudio difícil de encontrar.
     
  4. mitanidani

    mitanidani Eu uso seedbox OVH


    Desde 29 Mai 2007
    Japão
    Pessoal voces conhecem algum site bom de dvd de series para baixar via http.
     
  5. Sam Winchester

    Sam Winchester Usuário


    Desde 20 Mai 2009
    Carandaí/MG/Brasil
    Fairoxx eu tentei fazer o mesmo com os áudios da primeira temporada do Supernatural, mas tive o mesmo resultado. Posso te passar o meu e-mail pra vc exportar pra minha conta? Mas eu ainda não tenho opção de enviar MP...
     
  6. 12riddickvgp12

    12riddickvgp12 Usuário

    877 1.425 923

    Desde 25 Fev 2012
    São Paulo
    muito obrigado amigo Huntsman85
     
  7. Sam Winchester

    Sam Winchester Usuário


    Desde 20 Mai 2009
    Carandaí/MG/Brasil
    Vlw a dica! Não tenho muito costume de baixar releases HD por causa da net lenta, mas um dia servirá! hehe'
     
  8. chuni

    chuni Usuário


    Desde 3 Jun 2007
    brazil
    Smallville: As Aventuras do Superboy - 10ª Temporada

    Audio
    Format : AC-3
    Format/Info : Audio Coding 3
    Format profile : Dolby Digital
    Mode extension : CM (complete main)
    Format settings, Endianness : Big
    Duration : 42mn 16s
    Bit rate mode : Constant
    Bit rate : 192 Kbps
    Channel(s) : 2 channels
    Channel positions : Front: L R
    Sampling rate : 48.0 KHz
    Bit depth : 16 bits
    Compression mode : Lossy
    Stream size : 58.1 MiB (100%)
    fonte bluray
    legenda sup
     
  9. 12riddickvgp12

    12riddickvgp12 Usuário

    877 1.425 923

    Desde 25 Fev 2012
    São Paulo
    chuni o temível ataca novamente (y)
     
  10. Fairoxx

    Fairoxx Usuário

    4.990 5.223 701

    Desde 9 Mar 2009
    Brasil
    Posta no meu livro de visitas.

    Obrigado cara, estava querendo essas legendas SUPs, só quem baixa Blu-rays Fulls sabe como é árdua essa tarefa, e quando esses BDs são séries o trampo quadruplica.

    PS. Esse vc pegou na usenet?
     
  11. Sam Winchester

    Sam Winchester Usuário


    Desde 20 Mai 2009
    Carandaí/MG/Brasil
    Já mandei. Uma dúvida q tenho, se eu importar um áudio pra minha conta, e o link original for deletado, o q está na minha conta também é deletado ou não?
     
  12. Druid

    Druid Usuário


    Desde 23 Jan 2005
    Curitiba/PR/Brasil
    Não amigo, só da conta que foi deletado.

    Druid®
     
  13. Sam Winchester

    Sam Winchester Usuário


    Desde 20 Mai 2009
    Carandaí/MG/Brasil
    Então isso é muito bom! Obrigado pela informação Druid.
     
  14. rafa_mordor

    rafa_mordor Usuário


    Desde 13 Mai 2011
    Gaspar / Santa Catarina
    Galera, caso alguém tenha interesse em séries eu achei a 1° temporada de Supernatural Dual-Áudio 720p dual (em http). Caso alguém queira eu mando MP.

    Abraços;
     
  15. Druid

    Druid Usuário


    Desde 23 Jan 2005
    Curitiba/PR/Brasil
    Sobre Duro de Matar 3, alguém sabe se saiu em Blu-ray com áudio 5.1, nosso amigo Davesm Upou os do filme 1 & 2 (e de acordo com os amigos com dublagem clássica), e o terceiro, será que não saiu, Chuni você que é o homem das impossibilidades não consegue para nós este áudio 5.1, estranho ter saído para os BD 1 e 2 e não para a trilogia :choro:?

    Druid®
     
  16. mitanidani

    mitanidani Eu uso seedbox OVH


    Desde 29 Mai 2007
    Japão
    Rafael me passa o endereço que eu pego se tiver links do Uploaded é melhor ainda pq semana passada assinei uma conta premium.

    Abraço
     
  17. chuni

    chuni Usuário


    Desde 3 Jun 2007
    brazil
    sim foi lá, ja tava até desanimado em ripar 22 episodios, ja conhecia o makemkv, mas depois das dicas sua de configurar pra ele marcar o audio pt automaticamente e do eric do mkvcleaver ficou mamao com açucar,
    :aplauso:

    valeu
     
  18. timartinelli

    timartinelli Usuário

    1.118 1.175 601

    Desde 23 Jun 2009
    Indaiatuba/SP/Brasil
    Boa Noite.

    Segue a 9ª Temporada da Serie Dois homens e Meio, daqui uns dias posto mais. estou baixando os DVDs.

    [​IMG]
    Audio
    Format : AC-3
    Format/Info : Audio Coding 3
    Format profile : Dolby Digital
    Mode extension : CM (complete main)
    Format settings, Endianness : Big
    Duration : 21mn 34s
    Bit rate mode : Constant
    Bit rate : 192 Kbps
    Channel count : 2 channels
    Channel positions : Front: L R
    Sampling rate : 48.0 KHz
    Bit depth : 16 bits
    Compression mode : Lossy
    Stream size : 29.6 MiB (100%)
    Fonte: DVD
    Legenda: IDX/SUB
    Na Tabela...
     
  19. Druid

    Druid Usuário


    Desde 23 Jan 2005
    Curitiba/PR/Brasil
    Pessoal para quem interessar, sincronia fina do Duro de Matar 3 1995

    [​IMG]

    Obs.: como a segunda sincronia fina é de +1.334ms o uso do loop do eac3to não é muito eficiente, pois ele sempre repete o que está anteriormente ao tempo do loop, ele fica melhor se usarmos valores de 300ms, e o pior neste caso é que foi bem no meio de uma conversação, mas acho que ficou legal (y):

    Sincronia Duro De Matar 3 - 1995

    MPCHC 23.000 ms
    Audio para extrair
    02:35
    inicio 00:02:35 60*02+35 = 155
    final 00:02:45 60*02+45 = 165
    Pico da Sincronia fina 1:
    Audio Inglês 2.027 ms
    Audio Português 1.930 ms
    Diferença 0.097 ms

    MPHC + Sincronia Fina -> 23.000 + 0.097 = 23.097 ms (programa usado DelayCut)

    Segunda assincronia em 1h:51:40
    inicio 01:51:40 3600*1+60*51+40 = 6700
    final 01:52:00 3600*1+60*52+00 = 6720
    Pico da Sincronia fina 2:
    Audio Inglês 2.377 ms
    Audio Português 1.043 ms
    Diferença 1.334 ms

    eac3to.exe "duro3.ac3" "duro3_.ac3" -edit=1:51:36.081,+1334ms -loop (programa usado eac3to com o áudio sincronizado do DelayCut)


    Espero que ajude a todos que querem sincroniza este filme com sincronia fina (y), partindo agora para o Duro De Matar 4.

    Druid®

    P.S. Distribuição da Sibéria: DIMAPIKS.
     
  20. Fairoxx

    Fairoxx Usuário

    4.990 5.223 701

    Desde 9 Mar 2009
    Brasil
    Depois da Terra (After Earth) [2013]
    [​IMG]
    Format : DTS
    Duration : 1h 40mn
    Bit rate mode : Constant
    Bit rate : 1 509 Kbps
    Channel count : 6 channels
    Channel positions : Front: L C R, Side: L R, LFE
    Sampling rate : 48.0 KHz
    Bit depth : 24 bits
    Compression mode : Lossy
    Stream size : 1.06 GB
    Legendas: SUP
    Fonte: BD

    AJUDE-NOS A MANTER OS ARQUIVOS ONLINE DESSA MANEIRA:
    [​IMG]
     
  1. Usamos cookies próprios e de terceiros para dar um melhor serviço e mostrar publicidade. Ao continuar, aceita o seu uso.
    Fechar Aviso